Watch Online WWE Raw 2020 09 21 Full Show

Watch WWE Raw 2020 09 21 HDTV NWCHD DX-TV

 

WWE Raw

 

 WWE RAW

Watch Online WWE Raw 2020 09 21 Full Show

 

Keith Lee to battle Drew McIntyre for golden WWE Clash of Champions opportunity

 

Last Monday, Keith Lee was on the verge of earning a potential WWE Championship opportunity in his battle against Drew McIntyre, until RETRIBUTION made their presence felt. However, The Limitless One’s championship dreams are not dashed. Lee will get another crack at McIntyre this Monday on Raw. If he can defeat the WWE Champion, and Randy Orton is still unable to compete on Sept. 27 at WWE Clash of Champions after being on the receiving end of three Claymores, Lee will challenge for the WWE Title.

Watch Online WWE Raw  

Huge Triple Threat Tag Team throwdown to determine Street Profits’ Clash of Champions challengers

Raw Tag Team Champions The Street Profits’ challengers for WWE Clash of Champions will be determined tonight on Raw in a major triple threat match,

pitting the new tag team of Dominik Mysterio & Humberto Carrillo against Seth Rollins & Murphy and Andrade & Angel Garza.

By going after tag team gold with one of his family’s closest allies in Carrillo, Dominik is looking to follow in his father’s footsteps. Rey Mysterio’s first title in WWE was the WWE Tag Team Championship, which he won alongside Edge. Will Dominik move one step closer to his first title in WWE? Will The Monday Night Messiah and his estranged disciple once again prove to be a roadblock for the Mysterios?

And after Zelina Vega ditched them to go after the Raw Women’s Championship and got in a fight themselves, Andrade & Angel Garza are out to prove they’re better on their own. Will they demonstrate that they never needed Vega’s help and earn a rematch with The Street Profits? Find out on Raw, tonight at 8/7 C on USA Network!

 

Watch Online WWE Raw 2020 09 21 Full Show

Complete name : WWE Raw.2020.09.21.HDTV.x264-NWCHD.mp4
Format : MPEG-4
Format profile : Base Media
Codec ID : isom
File size : 1.40 GiB
Duration : 2 h 5 min
Overall bit rate : 1 598 kb/s
Writing application : Lavf58.27.103

Watch Online WWE Raw  

Video
ID : 1
Format : AVC
Format/Info : Advanced
Duration : 2 h 5 min
Bit rate : 1 400 kb/s
Width : 704 pixels
Height : 400 pixels
Display aspect ratio : 16:9
Original display aspect rat : 16:9
rate : 29.970 (30000/1001) FPS
Color space : YUV
Chroma subsampling : 4:2:0
Bit depth : 8 bits
Scan type : Progressive
Bits/(Pixel*Frame) : 0.166
Stream size : 1.22 GiB (87%)
Color primaries : BT.709
Transfer characteristics : BT.709
Matrix coefficients : BT.709
Codec configuration box : avcC

Watch Online WWE Raw 2020 09 21 Full Show

Audio
ID : 2
Format : AAC LC
Format/Info : Advanced Audio
Codec ID : mp4a-40-2
Duration : 2 h 5 min
Bit rate mode : Constant
Bit rate : 192 kb/s
Channel(s) : 2 channels
Channel layout : L R
Sampling rate : 48.0 kHz
Frame rate : 46.875 FPS (1024 SPF)
Compression mode : Lossy
Stream size : 172 MiB (12%)
Title : Stereo
Language : English
Default : Yes
Alternate group : 1

 

 

 

Watch Online WWE Raw 2020 09 21 Full Show

 

 

 

 

Watch online

 

 

 

 

 

Server 1

 

 

 

 

watch now

 

 

 

 

Server-2

 

 

 

WWE Raw

 

 

 

 

Server-3

 

 

 

watch now

 

 

 

 

Uploaded By Site DX-TV.com

 

 

 

 

Download Free Links with normal and high Speed [ more 15 hosts ]  

 

 

 

http://shrt10.com/ZIqpZVU0N
http://shrt10.com/8VKDjr6
http://shrt10.com/8Ks6WR
http://shrt10.com/RhmTX3veM
http://shrt10.com/xYiDP
http://shrt10.com/dEff53zMT
http://shrt10.com/cuUha0G
http://shrt10.com/cGyrd
http://shrt10.com/oVsSQ9GS
http://shrt10.com/XEuES
http://shrt10.com/f20lW
http://shrt10.com/LwyijR
http://shrt10.com/riWGdpB

 

 

 

 

Download Links with premium High Speed   

 

 

 

 

uploaded.net

 

 

 

nitroflare.com

 

 

 

rapidgator.net

 

 

 

uploadgig.com

 

 

 

 

 

dx-tv.com

 

urlfree.net

Leave a Reply

Your email address will not be published. Required fields are marked *

This site uses Akismet to reduce spam. Learn how your comment data is processed.