Watch Online WWE NXT 2020 01 08 DX-TV

Watch Online WWE NXT 2020 01 08 DX-TV

 

 

WWE Raw

 

 

 

 

dx-tv.com

 

 

 

 

Watch Online WWE NXT 2020 01 08 DX-TV

 

 

 

 

 

Complete name : WWE.NXT.2020.01.08.WEB.x264.DX-TV.mp4
Format : MPEG-4
Format profile : Base Media / Version 2
Codec ID : mp42 (mp42)
File size : 1.49 GiB
Duration : 1 h 39 min
Overall bit rate : 2 134 kb/s
Codirector : codirector
Production studio : studio
ContentType : Unknown Type
Encoded date : UTC 2020-01-09 08:19:52
Tagged date : UTC 2020-01-09 08:19:52

Video
ID : 1
Format : AVC
Format/Info : Advanced Video Codec
Duration : 1 h 39 min
Bit rate : 1 999 kb/s
Width : 960 pixels
Height : 540 pixels
Display aspect ratio : 16:9
Frame rate mode : Constant
Frame rate : 30.000 FPS
Color space : YUV
Chroma subsampling : 4:2:0
Bit depth : 8 bits
Scan type : Progressive
Bits/(Pixel*Frame) : 0.129
Stream size : 1.39 GiB (94%)
Language : English
Codec configuration box : avcC

Audio
ID : 2
Format : AAC LC
Format/Info : Advanced Audio Codec Low Complexity
Codec ID : mp4a-40-2
Duration : 1 h 39 min
Bit rate mode : Constant
Bit rate : 128 kb/s
Channel(s) : 2 channels
Channel layout : L R
Sampling rate : 44.1 kHz
Frame rate : 43.066 FPS (1024 SPF)
Compression mode : Lossy
Stream size : 91.3 MiB (6%)
Title : Stereo
Language : English
Default : Yes
Alternate group : 1

 

 

 

Watch online

 

 

 

Server 1

 

 

 

 

watch now

 

 

Watch Online WWE NXT 2020 01 08 DX-TV

 

 

 

Uploaded By Site DX-TV.com

 

 

 

 

Download VIP Members FTP Link and Free Links 

 

 

Limited Time will be removed after 30 days if you need available again pm email admin

 

This section is only available to registered users.

1fichier.com 

 

 

 

dailyuploads.net

 

 

dl.free.fr

 

 

katfile.com

 

 

rockfile.co

 

 

uploadbank.com 

 

 

 

 

 

Download with premium account Links 

 

 

nitroflare.com

 

 

rapidgator.net

 

 

uploaded.net

 

 

 

 

 

 

 

 

 

Categories



Archives