Watch Online NJPW CMLL Fantastica Mania 2020 Day 1

Watch Online NJPW CMLL Fantastica Mania 2020 01 10 Day 1 DX-TV

 

 

wwe raw

 

 

 

 

dx-tv.com

 

 

 

 

Watch Online NJPW CMLL Fantastica Mania 2020 Day 1

 

 

 

 

Complete name : D:\WWE\NJPW CMLL Fantastica Mania 2020-01-10 Day 1 WEB x264 DX-TV.mp4
Format : MPEG-4
Format profile : Base Media
Codec ID : isom (isom/iso2/avc1/mp41)
File size : 2.79 GiB
Duration : 2 h 6 min
Overall bit rate : 3 170 kb/s
Writing application : Lavf58.25.100

Video
ID : 1
Format : AVC
Duration : 2 h 6 min
Bit rate : 3 000 kb/s
Width : 1 280 pixels
Height : 720 pixels
Display aspect ratio : 16:9
Frame rate mode : Constant
Frame rate : 30.000 FPS
Color space : YUV
Chroma subsampling : 4:2:0
Bit depth : 8 bits
Scan type : Progressive
Bits/(Pixel*Frame) : 0.109
Stream size : 2.64 GiB (95%)
Codec configuration box : avcC

Audio
ID : 2
Format : AAC LC
Format/Info : Advanced Audio Codec Low Complexity
Codec ID : mp4a-40-2
Duration : 2 h 6 min
Bit rate mode : Constant
Bit rate : 161 kb/s
Channel(s) : 2 channels
Channel layout : L R
Sampling rate : 44.1 kHz
Frame rate : 43.066 FPS (1024 SPF)
Compression mode : Lossy
Stream size : 146 MiB (5%)
Default : Yes
Alternate group : 1

 

 

 

 

 

 

Watch online

 

Server 1

 

 

 

 

watch now

 

 

Watch Online NJPW CMLL Fantastica Mania 2020 Day 1

 

 

 

Uploaded By Site DX-TV.com

 

 

 

 

 

Download VIP Members FTP server Download 1 Link and Free Links 

 

 

 

Limited Time will be removed after 90 days if you need available again pm email admin

 

This section is only available to registered users.

 

1fichier.com 

 

earn4files.com

 

 

dl.free.fr

 

 

 

Download with premium account Links 

 

 

nitroflare.com

 

 

rapidgator.net

 

 

uploaded.net

 

 

 

 

 

 

 

 

 

Categories



Archives