Watch NXT UK 2020 10 15 WWE Full Show 1080p

Watch NXT UK 2020 10 15 WWE Full Show 1080p DX-TV

 

NXT UK 2020 10 15

 

 Watch NXT UK 2020 10 15
 


 

 

Watch NXT UK 2020 10 15 WWE Full Show 1080p

 

WWE NXT UK results, Oct. 15, 2020

“The Bomber” Dave Mastiff def. Joseph Conners in a Heritage Cup First Round Match

Two of NXT UK‘s hardest hitters clashed in exactly the fashion one would expect, exchanging hard strikes throughout, though no falls were scored until the third round. Dave Mastiff became the first Superstar to win a Heritage Cup bout via knockout, as he blasted Joseph Conners with a massive right hand to put him on dream street and advance. 

Piper Niven def. Isla Dawn

NXT UK 2020 10 15

Isla Dawn nearly scored an upset, landing several near-falls against Piper Niven, including a breathtakingly close instance following a top-rope Meteora. Niven fought out of a modified Dragon Sleeper, dropping The White Witch with a high-angle back suplex before connecting with a running corner cannonball and planting her with a Michinoku Driver for the victory.

Ilja Dragunov & Pete Dunne def. WALTER & Alexander Wolfe

The NXT United Kingdom Champion and Ilja Dragunov gave the NXT UK Universe a sneak peek of their highly anticipated title bout in two weeks, punishing each other with signature offense. WALTER seemingly grew frustrated with his inability to put The Mad Russian away, netting only a two-count after a massive release German suplex. He took out his frustration by delivering blistering chops, making mincemeat of Dragunov’s chest.

NXT UK 2020 10 15

But Dragunov fought his way out of WALTER’s sleeper with relentless strikes of his own, and somehow summoned the strength to hit a Gotch lift suplex on the much larger champion. Pete Dunne, competing in his first NXT UK bout in more than a year, neutralized Alexander Wolfe on the outside by splaying his fingers, giving Dragunov an opening to connect with Torpedo Moscow on The Ring General. 

NXT UK 2020 10 15

Complete name : WWE.NXT.UK.2020.10.15.1080p.WEB.h264-HEEL.mp4
Format : MPEG-4
Format profile : Base Media
Codec ID : isom
File size : 2.31 GiB
Duration : 56 min 36 s
Overall bit rate mode : Variable
Overall bit rate : 5 831 kb/s
Writing application : Lavf58.32.104

NXT UK 2020 10 15

Video
ID : 1
Format : AVC
Duration : 56 min 36 s
Bit rate : 5 695 kb/s
Width : 1 920 pixels
Height : 1 080 pixels
Display aspect ratio : 16:9
Frame rate mode : Variable
Frame rate : 30.000 FPS
Color space : YUV
Chroma sampling : 4:2:0
Bit depth : 8 bits
Scan type : Progressive
Bits/(Pixel*Frame) : 0.092
Stream size : 2.25 GiB (98%)
Codec configuration box : avcC

NXT UK 2020 10 15

Audio
ID : 2
Format : AAC LC
Format/Info : Advanced Audio
Codec ID : mp4a-40-2
Duration : 56 min 36 s
Bit rate mode : Variable
Bit rate : 125 kb/s
Maximum bit rate : 137 kb/s
Channel(s) : 2 channels
Channel layout : L R
Sampling rate : 48.0 kHz
Frame rate : 46.875 FPS (1024 SPF)
Compression mode : Lossy
Stream size : 50.8 MiB (2%)
Default : Yes
Alternate group : 1

Text #1
ID : 1-CC1
Format : EIA-608
Muxing mode : SCTE 128 / DTVCC Transport
Muxing mode, more info : Muxed in Video #1
Duration : 56 min 36 s
Bit rate mode : Constant
Stream size : 0.00 Byte (0%)
Caption Service Name : CC1

NXT UK 2020 10 15

Text #2
ID : 1-T1
Format : EIA-608
Muxing mode : SCTE 128 / DTVCC Transport
Muxing mode, more info : Muxed in Video #1
Duration : 56 min 36 s
Bit rate mode : Constant
Stream size : 0.00 Byte (0%)
Caption Service Name : T1

Text #3
ID : 1-CC3
Format : EIA-608
Muxing mode : SCTE 128 / DTVCC Transport
Muxing mode, more info : Muxed in Video #1
Duration : 56 min 36 s
Bit rate mode : Constant
Stream size : 0.00 Byte (0%)
CaptionServiceName : CC3

NXT UK 2020 10 15

Text #4
ID : 1-1
Format : EIA-708
Muxing mode : SCTE 128 / DTVCC Transport
Muxing mode, more info : Muxed in Video #1
Duration : 56 min 36 s
Bit rate mode : Constant
Stream size : 0.00 Byte (0%)

 

 

 

Watch NXT UK 2020 10 15 WWE Full Show 1080p

 

 

 

Watch online

 

Server 1

 

 

 

 

watch now

 

 

 

 

Server-2

 

 

 

watch now

 

 

 

 

Server-3

 

 

 

NXT UK 2020 10 15

 

 

 

 

Uploaded By Site DX-TV.com

 

 

Download Links with premium High Speed   

 

 

 

 

dropapk.to

 

 

 

nitroflare.com

 

 

 

rapidgator.net

 

 

 

uploadgig.com

 

 

 

 

 

dx-tv.com

 

urlfree.net

Leave a Reply

Your email address will not be published. Required fields are marked *

This site uses Akismet to reduce spam. Learn how your comment data is processed.