Watch NJPW Road to Tokyo Dome Day 5 2020 12 21 DX-TV

Watch NJPW Road to Tokyo Dome Day 5 2020 12 21 DX-TV

Watch NJPW Road to Tokyo Dome

 Watch NJPW Road to Tokyo Dome

 

Download Links with premium High Speed   

 

 

dropapk.to

http://shrt10.com/x1IQp48f

 

 

nitroflare.com

http://shrt10.com/LTy99

 

 

rapidgator.net

http://shrt10.com/u0YC1

 

 

uploaded.net

http://shrt10.com/dczay6E

 

 

uploadgig.com

http://shrt10.com/x4p1Ow4fv

 

 

Watch online

 

Server 1

 

 

 

 

Watch NJPW Road to Tokyo Dome

 

 

 

 

Server-2

 

 

 

 

watch now

 

 

Uploaded By Site DX-TV.com

 

 

 

[su_expand more_text=”Show More Info” less_text=”Close all Info” height=”50″ text_color=”#000000″ link_color=”#e25f8b” link_style=”button” more_icon=”icon: arrow-down” less_icon=”icon: arrow-up”]

Complete name : NJPW.2020.12.21.Road.to.Tokyo.Dome.Day.5.JAPANESE.WEB.h264-LATE.mkv
Format : Matroska
Format version : Version 4
File size : 2.01 GiB
Duration : 2 h 30 min
Overall bit rate : 1 916 kb/s

Watch NJPW Road to Tokyo

Video
ID : 1
Format : AVC
Duration : 2 h 30 min
Bit rate : 1 814 kb/s
Width : 960 pixels
Height : 540 pixels
Display aspect ratio : 16:9
Frame rate mode : Constant
Frame rate : 30.000 FPS
Color space : YUV
Chroma subsampling : 4:2:0
Bit depth : 8 bits
Scan type : Progressive
Bits/(Pixel*Frame) : 0.117
Stream size : 1.90 GiB (95%)
Default : Yes
Forced : No
Color range : Limited
Color primaries : BT.601 PAL
Transfer characteristics : BT.601
Matrix coefficients : BT.470

Watch NJPW Road to Tokyo

Audio
ID : 2
Format : AAC LC
Format/Info : Advanced Audio
Codec ID : A_AAC-2
Duration : 2 h 30 min
Bit rate : 99.5 kb/s
Channel(s) : 2 channels
Channel layout : L R
Sampling rate : 44.1 kHz
Frame rate : 43.066 FPS (1024 SPF)
Compression mode : Lossy
Stream size : 107 MiB (5%)
Language : English
Default : Yes
Forced : No

 NJPW Road to Tokyo

Format : AVC
Duration : 2 h 30 min
Bit rate : 1 814 kb/s
Width : 960 pixels
Height : 540 pixels
Display aspect ratio : 16:9
Frame rate mode : Constant
Frame rate : 30.000 FPS
Color space : YUV
Chroma subsampling : 4:2:0
Bit depth : 8 bits
Scan type : Progressive
Bits/(Pixel*Frame) : 0.117
Stream size : 1.90 GiB (95%)
Default : Yes
Forced : No
Color range : Limited
Color primaries : BT.601 PAL
Transfer characteristics : BT.601
Matrix coefficients : BT.470

Watch NJPW Road to  

 

Audio
ID : 2
Format : AAC LC
Format/Info : Advanced Audio
Codec ID : A_AAC-2
Duration : 2 h 30 min
Bit rate : 99.5 kb/s
Channel(s) : 2 channels
Channel layout : L R
Sampling rate : 44.1 kHz
Frame rate : 43.066 FPS (1024 SPF)
Compression mode : Lossy
Stream size : 107 MiB (5%)
Language : English
Default : Yes
Forced : No

 NJPW Road to Tokyo

[/su_expand]

 

https://dx-tv.com/

Leave a Reply

Your email address will not be published. Required fields are marked *

This site uses Akismet to reduce spam. Learn how your comment data is processed.