Watch NJPW Road to Power Struggle 2020 English Day 7

NJPW Road to Power Struggle 2020 English Day 7 DX-TV

Watch NJPW English

 

 Watch NJPW English
 

Watch NJPW Road to Power Struggle 2020 English Day 7

 

 

The Road to Power Struggle has kicked off with Gedo on the BULLET CLUB side of KENTA

nd Jay White in six man tag action, but the tour didn’t start well for the Switchblade’s devious manager.

A Kamigoye resulted in defeat for the BULLET CLUB side, but from November 1

a substitution will see Chase Owens return to Japanese action, while Gedo calls the plays from ringside. 

Owens has an impressive record in recent weeks on NJPW STRONG,

Watch NJPW English

and will add an extra dimension to BULLET CLUB’s already deep tactical playbook. Will his presence throw Ibushi

r Tanahashi off their games heading into big Power Struggle matchups on November 7?  

Add Tetsuya Naito and EVIL, and Kazuchika Okada and The Empire of Great-O-Khan

nd Will Ospreay continuing to do battle on the road to EDION Arena on November 7,

they too will clash on both nights in what’s sure to be intense tag team action never,

has the Power Struggle name seemed more appropriate, and you can catch all the action on NJPW World!

Watch NJPW English

Complete name : NJPW.2020.11.01.Road.to.Power.Struggle.Day.7.ENGLISH.720p.WEB.h264-LATE.mkv
Format : Matroska
Format version : Version 4
File size : 2.04 GiB
Duration : 2 h 25 min
Overall bit rate : 2 001 kb/s

Watch NJPW English

Video
ID : 1
Format : AVC
Duration : 2 h 25 min
Bit rate : 1 904 kb/s
Width : 1 280 pixels
Height : 720 pixels
Display aspect ratio : 16:9
Frame rate mode : Constant
Frame rate : 30.000 FPS
Color space : YUV
Chroma subsampling : 4:2:0
Bit depth : 8 bits
Scan type : Progressive
Bits/(Pixel*Frame) : 0.069
Stream size : 1.94 GiB (95%)
Forced : No

Watch NJPW English

Audio
ID : 2
Format : AAC LC
Format/Info : Advanced
Codec ID : A_AAC-2
Duration : 2 h 25 min
Bit rate : 93.8 kb/s
Channel(s) : 2 channels
Channel layout : L R
Sampling rate : 44.1 kHz
Frame rate : 43.066 FPS
Compression mode : Lossy
Delay relative to video : -23 ms
Stream size : 97.9 MiB (5%)
Default : Yes
Forced : No

 

 

 

Watch NJPW Road to Power Struggle 2020 English Day 7

 

 

 

 

Watch online

 

 

 

 

 

Server 1

 

 

 

 

Watch NJPW English

 

 

 

 

Server-2

 

 

 

watch now

 

 

 

 

 

Uploaded By Site DX-TV.com

 

 

 

 

Download Free Links with normal and high Speed [ more 14 hosts ]  

 

 

 

http://shrt10.com/9mscLDCS
http://shrt10.com/c14cJx
http://shrt10.com/ofIGZcOO
http://shrt10.com/lEd0b
http://shrt10.com/T1A1LzN
http://shrt10.com/lm4Y8bU
http://shrt10.com/76Ucbww

 

 

 

 

Download Links with premium High Speed   

 

 

 

 

dropapk.to

 

 

 

nitroflare.com

 

 

 

rapidgator.net

 

 

 

uploaded.net

 

 

 

uploadgig.com

 

 

 

 

 

dx-tv.com

 

urlfree.net

Leave a Reply

Your email address will not be published. Required fields are marked *

This site uses Akismet to reduce spam. Learn how your comment data is processed.