Watch Online ROH Wrestling 2020 11 01 720p

Online ROH Wrestling 2020 11 01 720p DX-TV

Watch Online Wrestling

 

 Watch Online Wrestling
 


 

 

Watch Online ROH Wrestling 2020 11 01 720p

Tony Deppen had been wrestling more than almost anyone in the tournament field once pandemic restrictions were lifted. Would he be the Cinderella?

Josh Woods was training with elite professional MMA fighters and teaching some of the world’s best amateurs as restrictions allowed.

Would this be the year he took the ball and ran?

And it was easy for me to see why David Finlay might jump ahead to the front of the pack.

A fourth-generation wrestler who had arguably the most successful 2020 coming into the tournament,

Finlay already had wins at the Tokyo Dome and a handful of wins in NJPW Strong coming out of the restricted environment.

But in the end, it wasn’t those men, a virtual unknown like Rust Taylor,

a former World TV Champion like Kenny King or Silas Young, or even a former World Champion like Jay Lethal. Stripped to its core,

the Pure Tournament highlighted two athletes in a match to determine who the best wrestler is. In the end,

it is the two best wrestlers Ring of Honor has to offer.

 

Complete name : ROH.Wrestling.2020.11.01.720p.HDTV.x264-NWCHD.mp4
Format : MPEG-4
Format profile : Base Media
Codec ID : mp42
File size : 1.53 GiB
Duration : 46 min 34 s
Overall bit rate mode : Variable
Overall bit rate : 4 698 kb/s

Watch Online Wrestling

Video
ID : 1
Format : AVC
Duration : 46 min 34 s
Bit rate : 4 500 kb/s
Width : 1 280 pixels
Height : 720 pixels
Display ratio : 16:9
Frame rate mode : Constant
Frame rate : 29.970 FPS
Color space : YUV
Chroma sampling : 4:2:0
Bit depth : 8 bits
Scan type : Progressive
Bits/(Pixel*Frame) : 0.163
Stream size : 1.46 GiB
Color range : Limited
Color primaries : BT.709
Transfer characteristics : BT.709
Matrix coefficients : BT.709
Codec configuration box : avcC

Watch Online Wrestling

Audio
ID : 2
Format : AAC LC
Format/Info : Advanced
Codec ID : mp4a-40-2
Duration : 46 min 34 s
Bit rate mode : Variable
Bit rate : 192 kb/s
Channel(s) : 2 channels
Channel layout : L R
Sampling rate : 48.0 kHz
Frame rate : 46.875 FPS
Compression mode : Lossy
Stream size : 64.1 MiB
Title : Stereo
Language : English
Default : Yes
Alternate group : 1

 

 

 

Watch Online ROH Wrestling 2020 11 01 720p

 

 

 

 

Watch online

 

 

 

Server 1

 

 

Watch Online Wrestling

 

 

 

 

Server-2

 

 

 

watch now

 

 

 

 

 

Uploaded By Site DX-TV.com

 

 

 

 

Download Free Links with normal and high Speed [ more 14 hosts ]  

 

[su_expand more_text=”Show Hosts Info” less_text=”Close all Info” height=”30″ text_color=”#000000″ link_color=”#e25f8b” link_style=”button” more_icon=”icon: arrow-down” less_icon=”icon: arrow-up”]

 

 

hexupload.net – clicknupload.co – www.multiup.org – uptobox.com – anonfiles.com – userscloud.com – 

 

 

[/su_expand]

 

 

http://shrt10.com/T5j5cOq2G
http://shrt10.com/PIz8L
http://shrt10.com/kMx6Qbgs
http://shrt10.com/uz7LIbId
http://shrt10.com/SkSTxkBjz
http://shrt10.com/HTFE8vMph
http://shrt10.com/hjlCE
http://shrt10.com/sKd4cPCI

 

 

 

 

Download Links with premium High Speed   

 

 

 

 

dropapk.to

 

 

 

nitroflare.com

 

 

 

rapidgator.net

 

 

 

uploaded.net

 

 

 

uploadgig.com

 

 

 

 

 

dx-tv.com

 

urlfree.net

Leave a Reply

Your email address will not be published. Required fields are marked *

This site uses Akismet to reduce spam. Learn how your comment data is processed.