Watch NJPW Power Struggle 2020 11 07 Japanese Online

NJPW Power Struggle 2020 11 07 Japanese Free Onlin DX-TV

NJPW Power Struggle 2020 11 07 Japanese

 

 Watch Wrestling Live NJPW

 

Watch NJPW Power Struggle 2020 11 07 Japanese Free Online

 

Complete name : C:\DX\WWE\NJPW Power Struggle 2020 11 07 Japanese WEB H264 DX-TV.COM.mp4
Format : MPEG-4
Format profile : Base Media
Codec ID : isom
File size : 3.02 GiB
Duration : 3 h 41 min
Overall bit rate : 1 950 kb/s
Writing application : Lavf58.25.100

NJPW Power Struggle 2020 11 07 Japanese

Video
ID : 1
Format : AVC
Duration : 3 h 41 min
Bit rate : 1 838 kb/s
Width : 960 pixels
Height : 540 pixels
Display aspect ratio : 16:9
Frame rate mode : Variable
Frame rate : 29.970 FPS
Color space : YUV
Chroma subsampling : 4:2:0
Bit depth : 8 bits
Scan type : Progressive
Bits/(Pixel*Frame) : 0.118
Stream size : 2.85 GiB (94%)
Color range : Limited
Color primaries : BT.601 PAL
Transfer characteristics : BT.601
Matrix coefficients : BT.470
Codec configuration box : avcC

NJPW Power Struggle 2020 11 07 Japanese

Audio
ID : 2
Format : AAC LC
Format/Info : Advanced Audio
Codec ID : mp4a-40-2
Duration : 3 h 41 min
Bit rate mode : Constant
Bit rate : 99.6 kb/s
Channel(s) : 2 channels
Channel layout : L R
Sampling rate : 44.1 kHz
Frame rate : 43.066 FPS (1024 SPF)
Compression mode : Lossy
Stream size : 158 MiB (5%)
Default : Yes
Alternate group : 1

NJPW Power Struggle 2020 11 07 Japanese

1st Match: Provisional KOPW 2020 No Corner Pads Match: Toru Yano vs Zack Sabre Jr. 

The night’s action will kick off with Zack Sabre Jr. facing Toru Yano for Yano’s KOPW 2020 trophy.

A unique prize conceived by Kazuchika Okada and first won by Yano at Summer Struggle in Jingu,

the KOPW 2020 sees the holder bring their own rules to the table ,

after ZSJ defeated Yano in Okayama during the G1 despite Yano pulling, every conceivable trick out of the book,

Yano got increasingly frustrated at Sabre replacing the turnbuckle pads in the ring every time he tried to remove them.

We now have a No Corner Pads Match set for Power Struggle ,which is sure to kick the night off in unique form.

 

 

Watch Full Show NJPW Power Struggle 2020 11 07 English

 

 

 

 

Watch online

 

 

 

 

 

Server 1

 

 

 

 

NJPW Power Struggle 2020 11 07 Japanese

 

 

 

 

Server-2

 

 

 

watch now

 

 

 

 

 

 

Uploaded By Site DX-TV.com

 

 

 

 

Download Free Links with normal and high Speed [ more 14 hosts ]  

 

[su_expand more_text=”Show Hosts Info” less_text=”Close all Info” height=”30″ text_color=”#000000″ link_color=”#e25f8b” link_style=”button” more_icon=”icon: arrow-down” less_icon=”icon: arrow-up”]

 

NJPW Power Struggle 2020 11 07 Japanese

hexupload.net – clicknupload.co – www.multiup.org – uptobox.com – anonfiles.com – userscloud.com –

dropapk.to alfafile.net – ddownload.com – rockfile.co – 1fichier.com – filedown.org – katfile.com – filerio.in

 

 

[/su_expand]

 

 

 

http://shrt10.com/FHIeU
http://shrt10.com/Ps4VjL
http://shrt10.com/GroKzF
http://shrt10.com/tkS6AXQY
http://shrt10.com/po0XO
http://shrt10.com/ebbQxZo

 

 

 

Download Links with premium High Speed   

 

 

 

 

dropapk.to

 

 

 

nitroflare.com

 

 

 

rapidgator.net

 

 

 

uploaded.net

 

 

 

uploadgig.com

 

 

 

 

 

dx-tv.com

 

urlfree.net

Leave a Reply

Your email address will not be published. Required fields are marked *

This site uses Akismet to reduce spam. Learn how your comment data is processed.