Watch Full Show NJPW Power Struggle 2020 11 07 English

Full Show NJPW Power Struggle 2020 11 07 English DX-TV

NJPW Power Struggle 2020 11 07 English

 

 Watch Wrestling Live NJPW
 


 

Watch Full Show NJPW Power Struggle 2020 11 07 English

 

Complete name : NJPW Power Struggle 2020 11 07 English WEB H264 DX-TV.COM.mp4
Format : MPEG-4
Format profile : Base Media
Codec ID : isom
File size : 3.01 GiB
Duration : 3 h 41 min
Overall bit rate : 1 945 kb/s
Writing application : Lavf58.25

NJPW Power Struggle 2020 11 07 English

Video
ID : 1
Format : AVC
Duration : 3 h 41 min
Source duration : 3 h 41 min
Bit rate : 1 836 kb/s
Width : 960 pixels
Height : 540 pixels
Display aspect ratio : 16:9
Frame rate mode : Variable
Frame rate : 30.000 FPS
Color space : YUV
Chroma subsampling : 4:2:0
Bit depth : 8 bits
Scan type : Progressive
Bits/(Pixel*Frame) : 0.118
Stream size : 2.84 GiB (94%)
Source stream size : 2.84 GiB (94%)
Color range : Limited
Color primaries : BT.601 PAL
Transfer characteristics : BT.601
Matrix coefficients : BT.470
Codec configuration box : avcC

NJPW Power Struggle 2020 11 07 English

Audio
ID : 2
Format : AAC LC
Format/Info : Advanced Audio
Codec ID : mp4a-40-2
Duration : 3 h 41 min
Bit rate mode : Constant
Bit rate : 99.7 kb/s
Channel(s) : 2 channels
Channel layout : L R
Sampling rate : 44.1 kHz
Frame rate : 43.066 FPS (1024 SPF)
Compression mode : Lossy
Stream size : 158 MiB (5%)
Default : Yes
Alternate group : 1

NJPW Power Struggle 2020 11 07 English

5th Match: Double IWGP Right to Challenge Contract Match: Kota Ibushi vs Jay White 

 

Just over a fortnight ago, Kota Ibushi made history by wrestling in his third consecutive G1 Climax final,

and followed up with a hard fought victory over SANADA in the longest G1 match in history.

His 35 minute 12 second win granted Ibushi the G1 trophy for the second year in a row,

putting him in the rarified air of back to back G1 winners,

a group whose only other members are Hiroyoshi Tenzan and Masahiro Chono. 

Yet one unarguable fact is that Ibushi made his third straight final .

and his second straight win despite suffering a loss to Jay White,

Indeed Ibushi’s presence in the final was thanks to the efforts of Tomohiro Ishii,

defeating White in the final night of A Block action,

NJPW Power Struggle 2020 11 07 English

Almost as much as it was Ibushi’s own efforts in a phenomenal battle against Taichi,

White’s challenge to Ibushi in the wake of his G1 win was an inevitability,

but the arrogant White couldn’t resist choosing Ibushi’s post match comments to make the challenge, stealing the spotlight in Ibushi’s moment. 

Ibushi is hungry for IWGP gold and the IWGP Heavyweight Championship that has eluded him for so long especially.

He currently holds a ticket to that title,but will he be able to face whomever the champion may be in the Tokyo Dome.

Or, with EVIL challenging Tetsuya Naito in the main event,

and after ringing the right to challenge briefcase off Ibushi’s head on Monday,

might Jay White take a longer route to his pre-G1 prediction of an all BULLET CLUB Wrestle Kingdom?

 

Watch Full Show NJPW Power Struggle 2020 11 07 English

 

 

Watch online

 

 

 

Server 1

 

 

NJPW Power Struggle 2020 11 07 English

 

 

 

 

Server-2

 

 

 

watch now

 

 

 

 

 

 

Uploaded By Site DX-TV.com

 

 

 

 

Download Free Links with normal and high Speed [ more 14 hosts ]  

 

[su_expand more_text=”Show Hosts Info” less_text=”Close all Info” height=”30″ text_color=”#000000″ link_color=”#e25f8b” link_style=”button” more_icon=”icon: arrow-down” less_icon=”icon: arrow-up”]

 Power Struggle 2020 11 07 English

 

hexupload.net – clicknupload.co – www.multiup.org – uptobox.com – anonfiles.com – userscloud.com –

dropapk.to alfafile.net – ddownload.com – rockfile.co – 1fichier.com – filedown.org – katfile.com – filerio.in

 

 

[/su_expand]

 

 

 

http://shrt10.com/eZxPFk2YH
http://shrt10.com/VBosmWxfC
http://shrt10.com/g2sMC
http://shrt10.com/ZMXyy
http://shrt10.com/rg5mCU2e

 

 

 

Download Links with premium High Speed   

 

 

 

 

dropapk.to

 

 

 

nitroflare.com

 

 

 

rapidgator.net

 

 

 

uploaded.net

 

 

 

uploadgig.com

 

 

 

 

 

dx-tv.com

 

urlfree.net

You May Also Like

Leave a Reply

Your email address will not be published. Required fields are marked *

This site uses Akismet to reduce spam. Learn how your comment data is processed.