Watch NJPW New Japan Showdown Japan 11/09/2019

Watch NJPW New Japan Showdown Japan 11/09/2019 WEB DX-TV

 

NJPW New Japan Showdown

 

 

 

dx-tv.com

 

 

 

 

Watch NJPW New Japan Showdown Japan 11/09/2019

 

 

 

Complete name : NJPW New Japan Showdown 11-09-2019 Japan WEB x264 DX-TV.mp4
Format : MPEG-4
Format profile : Base Media
Codec ID : isom (mp41/avc1)
File size : 2.74 GiB
Duration : 3 h 19 min
Overall bit rate mode : Variable
Overall bit rate : 1 965 kb/s

Video
ID : 2
Format : AVC
Duration : 3 h 19 min
Bit rate : 1 855 kb/s
Width : 960 pixels
Height : 540 pixels
Display aspect ratio : 16:9
Frame rate mode : Variable
Frame rate : 29.917 FPS
Minimum frame rate : 14.925 FPS
Maximum frame rate : 30.303 FPS
Original frame rate : 30.000 FPS
Color space : YUV
Chroma subsampling : 4:2:0
Bit depth : 8 bits
Scan type : Progressive
Bits/(Pixel*Frame) : 0.120
Stream size : 2.59 GiB (94%)
Language : English
Encoded date : UTC 2019-11-10 06:20:57
Tagged date : UTC 2019-11-10 06:20:57
Color range : Limited
Color primaries : BT.601 PAL
Transfer characteristics : BT.601
Matrix coefficients : BT.470 System B/G
Codec configuration box : avcC

Audio
ID : 1
Format : AAC LC
Codec ID : mp4a-40-2
Duration : 3 h 19 min
Bit rate mode : Variable
Bit rate : 99.9 kb/s
Maximum bit rate : 175 kb/s
Channel(s) : 2 channels
Channel layout : L R
Sampling rate : 44.1 kHz
Frame rate : 43.066 FPS (1024 SPF)
Compression mode : Lossy
Stream size : 142 MiB (5%)
Language : Japan

 

 

 

 

 

 

Watch online

 

 

Waiting finish converting video

 

 

Server 1

 

 

 

 

watch now

 

 

 

 

 

 

Server 2

 

 

 

 

watch now

 

 

 

 

 

 

 

 

 

 

Uploaded By Site DX-TV.com

 

 

 

 

 

Watch NJPW New Japan Showdown Japan 11/09/2019

 

 

 

 

 

Recommended For Free

 

 

 

 

earn4files.com

 

 

 

clicknupload.org

 

 

 

 

 

Download with high speed with Premium account

 

 

 

 

nitroflare.com

 

 

 

rapidgator.net

 

 

 

uploaded.net

 

 

 

 

 

Leave a Reply

Your email address will not be published. Required fields are marked *

5 × four =