Watch NJPW New Japan Showdown 11/09/2019 ENG

Watch NJPW New Japan Showdown 11-09-2019 English WEB DX-TV

 

NJPW New Japan Showdown

 

 

 

dx-tv.com

 

 

 

 

Watch NJPW New Japan Showdown 11/09/2019 ENG

 

 

 

 

 

Complete name : NJPW New Japan Showdown 11-09-2019 English WEB x264 DX-TV.mp4
Format : MPEG-4
Format profile : Base Media
Codec ID : isom (isom/iso2/avc1/mp41)
File size : 3.03 GiB
Duration : 3 h 20 min
Overall bit rate : 2 170 kb/s
Writing application : Lavf57.84.100

Video
ID : 1
Format : AVC
Codec ID : avc1
Duration : 3 h 20 min
Bit rate : 2 000 kb/s
Width : 960 pixels
Height : 540 pixels
Display aspect ratio : 16:9
Frame rate mode : Constant
Frame rate : 30.000 FPS
Color space : YUV
Chroma subsampling : 4:2:0
Bit depth : 8 bits
Scan type : Progressive
Bits/(Pixel*Frame) : 0.129
Stream size : 2.80 GiB (92%)
Audio
ID : 2
Format : AAC LC
Format/Info : Advanced Audio Codec Low Complexity
Codec ID : mp4a-40-2
Duration : 3 h 20 min
Bit rate mode : Constant
Bit rate : 161 kb/s
Channel(s) : 2 channels
Channel layout : L R
Sampling rate : 44.1 kHz
Frame rate : 43.066 FPS (1024 SPF)
Compression mode : Lossy
Stream size : 231 MiB (7%)
Title : simple_aac
Default : Yes
Alternate group : 1

 

 

 

New Japan Showdown in San Jose November 9

  • Kazuchika Okada & Will Ospreay vs. Kota Ibushi & Amazing Red
  • Tetsuya Naito & Shingo Takagi vs. Jay White & Chase Owens
  • IWGP United States Heavyweight Champion Lance Archer defending against David Finlay
  • RevPro British Cruiserweight Champion El Phantasmo defending against SHO
  • Hirooki Goto, YOH & Rocky Romero vs. KENTA, Taiji Ishimori & Jado
  • Tomohiro Ishii, Juice Robinson & TJP vs. EVIL, SANADA & BUSHI
  • Karl Fredericks & Clark Connors vs. Minoru Suzuki & El Desperado
  • Jushin Thunder Liger & Aaron Solow vs. Toru Yano & Colt Cabana
  • Ren Narita vs. Alex Coughlin

 

 

 

 

 

Watch online

 

 

Waiting finish converting video

 

 

Server 1

 

 

 

 

 

watch now

 

 

 

 

 

 

Server 2

 

 

 

watch now

 

 

 

 

 

 

 

 

 

 

 

Uploaded By Site DX-TV.com

 

 

 

 

 

Watch NJPW New Japan Showdown 11/09/2019 ENG

 

 

 

 

 

 

Recommended For Free

 

 

 

 

earn4files.com

 

 

 

clicknupload.org

 

 

 

 

 

Download with high speed with Premium account

 

 

 

 

nitroflare.com

 

 

 

rapidgator.net

 

 

 

uploaded.net

 

 

 

 

 

Leave a Reply

Your email address will not be published. Required fields are marked *

eighteen − sixteen =