Watch NJPW Final English G1 CLIMAX 30 2020 Full Show

FINAL:NJPW G1 CLIMAX 30 2020 10 18 Full Show Online DX-TV

 

NJPW Final English G1 CLIMAX 30

 

 NJPW Final English G1 CLIMAX 30

 

Watch NJPW Final English G1 CLIMAX 30 2020 Full Show

 

 

 

 

Complete name : NJPW.2020.10.18.G1.Climax.30.Finale.ENGLISH.WEB.h264-DaShield.mp4
Format : MPEG-4
Format profile : Base Media
Codec ID : isom
File size : 2.60 GiB
Duration : 3 h 10 min
Overall bit rate mode : Variable
Overall bit rate : 1 953 kb/s
Writing application : Lavf53.24.2

NJPW Final English G1 CLIMAX 30

Video
ID : 1
Format : AVC
Duration : 3 h 10 min
Bit rate : 1 842 kb/s
Width : 960 pixels
Height : 540 pixels
Display aspect ratio : 16:9
Frame rate mode : Variable
Frame rate : 30.000 FPS
Color space : YUV
Chroma sampling : 4:2:0
Bit depth : 8 bits
Scan type : Progressive
Bits/(Pixel*Frame) : 0.118
Stream size : 2.45 GiB (94%)
Color range : Limited
Color primaries : BT.601 PAL
Transfer characteristics : BT.601
Matrix coefficients : BT.470
Codec configuration box : avcC

NJPW Final English G1 CLIMAX 30

Audio
ID : 2
Format : AAC LC
Format/Info : Advanced Audio
Codec ID : mp4a-40-2
Duration : 3 h 10 min
Bit rate mode : Variable
Bit rate : 100 kb/s
Maximum bit rate : 110 kb/s
Channel(s) : 2 channels
Channel layout : L R
Sampling rate : 44.1 kHz
Frame rate : 43.066 FPS
Compression mode : Lossy
Stream size : 136 MiB (5%)
Default : Yes
Alternate group : 1

NJPW Final English G1 CLIMAX 30

2nd Match: Los Ingobernables De Japon (Hiromu Takahashi & Shingo Takagi)

vs Suzuki-Gun (Minoru Suzuki & Yoshinobu Kanemaru)

Speaking of Best of the Super Juniors, Hiromu Takahashi and Yoshinobu Kanemaru are two competitors who could rightfully claim a spot in that tournament this November. They hit the ring for the first time in over a month tonight, and share it with two men in Shingo Takagi and Minoru Suzuki who will pick up right where they left off on Friday. Then it was a Last of the Dragon that got the win for Shingo well against the run of the match. Can Takagi score a definitive victory, or will Suzuki show a firm upper hand?

 

Watch NJPW Final English G1 CLIMAX 30 2020 Full Show

 

 

Watch online

 

 

Server 1

 

 

NJPW Final English G1 CLIMAX 30

 

 

 

 

Server-2

 

 

 

watch now

 

 

 

 

Server-3

 

 

 

watch now

 

 

 

 

Uploaded By Site DX-TV.com

 

 

Download Links with premium High Speed   

 

 

 

dropapk.to

 

 

 

nitroflare.com

 

 

 

rapidgator.net

 

 

 

uploaded.net

 

 

 

uploadgig.com

 

 

 

 

 

dx-tv.com

 

urlfree.net

Leave a Reply

Your email address will not be published. Required fields are marked *

This site uses Akismet to reduce spam. Learn how your comment data is processed.