G1 CLIMAX 30 Final 2020 Japanese NJPW Full Show

Watch G1 CLIMAX 30 Final 2020 Japanese NJPW Full Show DX-TV

 

G1 CLIMAX 30 Final 2020

 

 G1 CLIMAX 30 Final 2020

 

G1 CLIMAX 30 Final 2020 Japanese NJPW Full Show

 

4th Match: CHAOS (SHO & Kazuchika Okada) vs Will Ospreay & Great-O-Khan 

The G1 final weekend often carries with it its fair share of shocks and surprises, and when all is said and done, the conclusion of Ospreay vs Okada from the A Block finals on Friday will perhaps be this year’s biggest. Bea Priestly appearing ringside to support her boyfriend against his ‘big brother’ Okada was unexpected, but not a shock. Her getting involved and drawing the referee so a returning Great-O-Khan could lay out Okada? A good deal more shocking, and Ospreay adding a post match exclamation point with a Hidden Blade, subsequently withdrawing from CHAOS and declaring the start of his own faction even more so. 

G1 CLIMAX 30 Final 2020

Okada now has to deal with a whirlwind of emotion in confronting the man he held as a brother for years, and who he helped into NJPW in the first place. SHO, too, has long been a friend of Ospreay’s, as well as one generation of talent removed from O-Khan, having ended his excursion just as O-Khan began his journey in the UK. There are a lot of elements to keep an eye on in this match.

G1 CLIMAX 30 Final 2020

Complete name : NJPW.2020.10.18.G1.Climax.30.Finale.JAPANESE.WEB.h264-DaShield.mp4
Format : MPEG-4
Format profile : Base Media
Codec ID : isom
File size : 2.60 GiB
Duration : 3 h 10 min
Overall bit rate mode : Variable
Overall bit rate : 1 959 kb/s
Writing application : Lavf53.24.2

G1 CLIMAX 30 Final 2020

Video
ID : 1
Format : AVC
Duration : 3 h 10 min
Bit rate : 1 849 kb/s
Width : 960 pixels
Height : 540 pixels
Display aspect ratio : 16:9
Frame rate mode : Variable
Frame rate : 30.000 FPS
Color space : YUV
Chroma subsampling : 4:2:0
Bit depth : 8 bits
Scan type : Progressive
Bits/(Pixel*Frame) : 0.119
Stream size : 2.46 GiB (94%)
Color range : Limited
Color primaries : BT.601 PAL
Transfer characteristics : BT.601
Matrix coefficients : BT.470
Codec configuration box : avcC

G1 CLIMAX 30 Final 2020

Audio
ID : 2
Format : AAC LC
Format/Info : Advanced Audio
Codec ID : mp4a-40-2
Duration : 3 h 10 min
Bit rate mode : Variable
Bit rate : 99.9 kb/s
Maximum bit rate : 111 kb/s
Channel(s) : 2 channels
Channel layout : L R
Sampling rate : 44.1 kHz
Frame rate : 43.066 FPS (1024 SPF)
Compression mode : Lossy
Stream size : 136 MiB (5%)
Default : Yes
Alternate group : 1

 

 

 CLIMAX 30 Final 2020 Japanese NJPW Full Show

 

Watch online

 

Server 1

 

 

 

 

G1 CLIMAX 30 Final 2020

 

 

 

 

Server-2

 

 

 

watch now

 

 

 

 

Server-3

 

 

 

watch now

 

 

 

 

Uploaded By Site DX-TV.com

 

 

Download Links with premium High Speed   

 

 

 

 

dropapk.to

 

 

 

nitroflare.com

 

 

 

rapidgator.net

 

 

 

uploaded.net

 

 

 

uploadgig.com

 

 

 

 

 

dx-tv.com

 

urlfree.net

Leave a Reply

Your email address will not be published. Required fields are marked *

This site uses Akismet to reduce spam. Learn how your comment data is processed.