Watch NJPW Day 9 Road to the New Beginning 2021 02 01

Watch NJPW Day 9 Road to the New Beginning 2021 02 01 DX-TV

Watch NJPW Day 9

 Watch NJPW Day 9

 

Download Links with premium High Speed   

 

 

dropapk.to

http://shrt10.com/GGFbi
http://shrt10.com/jHQV9j

 

 

nitroflare.com

http://shrt10.com/gAmQ2
http://shrt10.com/wXWS6E

 

 

rapidgator.net

http://shrt10.com/qFpXFP
http://shrt10.com/PeH8W

 

 

uploaded.net

http://shrt10.com/y8s6GYE
http://shrt10.com/2Qv0DYW

 

 

 

Watch NJPW online

 

Server 1

 

 

 

 

Watch NJPW

watch now

 

 

 

 

 

Server-2

 

 

 

 

Watch NJPW

watch now

 

 

Uploaded By Site DX-TV.com

 

 

Complete name : NJPW.2021.02.01.Road.to.the.New.Beginning.Day.9.JAPANESE.WEB.h264-LATE.mkv
Format : Matroska
Format version : Version 4
File size : 1.89 GiB
Duration : 1 h 55 min
Overall bit rate : 2 347 kb/s

Watch NJPW

Video
ID : 1
Format : AVC
Format/Info : Advanced Video
Duration : 1 h 55 min
Bit rate : 2 245 kb/s
Width : 1 280 pixels
Height : 720 pixels
Display aspect ratio : 16:9
Frame rate mode : Constant
Frame rate : 30.000 FPS
Color space : YUV
Chroma subsampling : 4:2:0
Bit depth : 8 bits
Scan type : Progressive
Bits/(Pixel*Frame) : 0.081
Stream size : 1.80 GiB (96%)
Default : Yes
Forced : No
Color range : Limited
Color primaries : BT.709
Transfer characteristics : BT.709
Matrix coefficients : BT.709

Audio
ID : 2
Format : AAC LC
Format/Info : Advanced Audio
Codec ID : A_AAC-2
Duration : 1 h 55 min
Bit rate : 99.0 kb/s
Channel(s) : 2 channels
Channel layout : L R
Sampling rate : 44.1 kHz
Frame rate : 43.066 FPS (1024 SPF)
Compression mode : Lossy
Stream size : 81.4 MiB (4%)
Language : English
Default : Yes
Forced : No

Watch NJPW

Complete name : NJPW.2021.02.01.Road.to.the.New.Beginning.Day.9.ENGLISH.WEB.h264-LATE.mkv
Format : Matroska
Format version : Version 4
File size : 1.54 GiB
Duration : 1 h 54 min
Overall bit rate : 1 917 kb/s

Video
ID : 1
Format : AVC
Format/Info : Advanced Video
Duration : 1 h 54 min
Bit rate : 1 815 kb/s
Width : 960 pixels
Height : 540 pixels
Display aspect ratio : 16:9
Frame rate mode : Constant
Frame rate : 30.000 FPS
Color space : YUV
Chroma subsampling : 4:2:0
Bit depth : 8 bits
Scan type : Progressive
Bits/(Pixel*Frame) : 0.117
Stream size : 1.46 GiB (95%)
Default : Yes
Forced : No
Color range : Limited
Color primaries : BT.601 PAL
Transfer characteristics : BT.601
Matrix coefficients : BT.470 System B/G

Watch NJPW

Audio
ID : 2
Format : AAC LC
Format/Info : Advanced Audio
Codec ID : A_AAC-2
Duration : 1 h 54 min
Bit rate : 99.3 kb/s
Channel(s) : 2 channels
Channel layout : L R
Sampling rate : 44.1 kHz
Frame rate : 43.066 FPS (1024 SPF)
Compression mode : Lossy
Stream size : 81.7 MiB (5%)
Language : English
Default : Yes
Forced : No

Watch NJPW

 

https://dx-tv.com/

You May Also Like

Leave a Reply

Your email address will not be published. Required fields are marked *

This site uses Akismet to reduce spam. Learn how your comment data is processed.