WWE Royal Rumble 2021 Free Online DX-TV

WWE Royal Rumble 2021 Free HDTV Star DX-TV

WWE Royal Rumble 2021 Free

 WWE Royal Rumble 2021

 

Download Links with premium High Speed   

 

 

dropapk.to

http://shrt10.com/OAxrC1l

 

 

nitroflare.com

http://shrt10.com/wL3Ru6p

 

 

rapidgator.net

http://shrt10.com/xPwtw

 

 

uploaded.net

http://shrt10.com/POWu3C

 

 

 

Watch WWE Royal Rumble 2021 online

 

Server 1

 

 

 

 

WWE Royal Rumble 2021

 

 

 

 

Server-2

 

 

 

 

watch now

 

 

Uploaded By Site DX-TV.com

 

 

Complete name : WWE.Royal.Rumble.2021.PPV.HDTV.x264-Star.mp4
Format : MPEG-4
Format profile : Base Media
Codec ID : mp42
File size : 2.28 GiB
Duration : 3 h 50 min
Overall bit rate : 1 419 kb/s

WWE Royal Rumble 2021

Video
ID : 1
Format : AVC
Format/Info : Advanced Video
Duration : 3 h 50 min
Bit rate : 1 300 kb/s
Width : 720 pixels
Height : 480 pixels
aspect ratio : 16:9
Frame rate mode : Constant
Frame rate : 29.970 (30000/1001) FPS
Standard : NTSC
Color space : YUV
Chroma subsampling : 4:2:0
Bit depth : 8 bits
Scan type : Progressive
Bits/(Pixel*Frame) : 0.126
Stream size : 2.09 GiB (91%)
Color range : Limited
Color primaries : BT.709
Transfer characteristics : BT.709
Matrix coefficients : BT.709
Codec configuration box : avc

WWE Royal Rumble 2021

Audio
ID : 2
Format : AAC LC
Format/Info : Advanced Audio
Codec ID : mp4a-40-2
Duration : 3 h 50 min
Bit rate mode : Constant
Bit rate : 112 kb/s
Channel(s) : 2 channels
Channel layout : L R
Sampling rate : 48.0 kHz
Frame rate : 46.875 FPS
Compression mode : Lossy
Stream size : 185 MiB
Title : Stereo
Default : Yes
Alternate group : 1

WWE Royal Rumble 2021

Audio
ID : 2
Format : AAC LC
Format/Info : Advanced Audio
Codec ID : mp4a-40-2
Duration : 3 h 50 min
Bit rate mode : Constant
Bit rate : 112 kb/s
Channel(s) : 2 channels
Channel layout : L R
Sampling rate : 48.0 kHz
Frame rate : 46.875 FPS
Compression mode : Lossy
Stream size : 185 MiB
Title : Stereo
Default : Yes
Alternate group : 1

Audio
ID : 2
Format : AAC LC
Format/Info : Advanced Audio
Codec ID : mp4a-40-2
Duration : 3 h 50 min
Bit rate mode : Constant
Bit rate : 112 kb/s
Channel(s) : 2 channels
Channel layout : L R
Sampling rate : 48.0 kHz
Frame rate : 46.875 FPS
Compression mode : Lossy
Stream size : 185 MiB
Title : Stereo
Default : Yes
Alternate group : 1

WWE Royal Rumble 2021

 

https://dx-tv.com/

You May Also Like

Leave a Reply

Your email address will not be published. Required fields are marked *

This site uses Akismet to reduce spam. Learn how your comment data is processed.