Watch NJPW Day 8 Road to Power Struggle 2020

NJPW Day 8 Road to Power Struggle 2020 DX-TV

Road to Power Struggle 2020

 

Road to Power Struggle 2020 Day 3
 

 

Watch NJPW Day 8 Road to Power Struggle 2020

 

 

forth battle saw DOUKI shine, YOSHI-HASHI came through with Karma for the victory.

Post match YOSHI-HASHI would state that like the NEVER 6-man belts,

IWGP tag glory would be his and CHAOS’ ‘in an instant

nd backstage Goto pledged that he would team with the Headhunter in his quest for more gold.

Dangerous Tekkers certainly voiced their disapproval of the challenge in Korakuen,

but will they be left speechless November 2?   

Road to Power Struggle 2020

The Road to Power Struggle has kicked off with Gedo on the BULLET CLUB side of KENTA

nd Jay White in six man tag action, but the tour didn’t start well for the Switchblade’s devious manager.

A Kamigoye resulted in defeat for the BULLET CLUB side, but from November 1

a substitution will see Chase Owens return to Japanese action, while Gedo calls the plays from ringside. 

Owens has an impressive record in recent weeks on NJPW STRONG,

Road to Power Struggle 2020

and will add an extra dimension to BULLET CLUB’s already deep tactical playbook. Will his presence throw Ibushi

r Tanahashi off their games heading into big Power Struggle matchups on November 7?  

Add Tetsuya Naito and EVIL, and Kazuchika Okada and The Empire of Great-O-Khan

nd Will Ospreay continuing to do battle on the road to EDION Arena on November 7,

they too will clash on both nights in what’s sure to be intense tag team action never,

has the Power Struggle name seemed more appropriate, and you can catch all the action on NJPW World!

 

Complete name : NJPW Day 8 Road to Power Struggle 2020 WEB DX-TV.com.mp4
Format : MPEG-4
Format profile : Base Media
Codec ID : isom
File size : 2.81 GiB
Duration : 3 h 28 min
Overall bit rate : 1 932 kb/s
Writing application : Lavf58.25

Road to Power Struggle 2020

Video
ID : 1
Format : AVC
Duration : 3 h 28 min
Bit rate : 1 823 kb/s
Width : 960 pixels
Height : 540 pixels
Display aspect ratio : 16:9
Frame rate mode : Variable
Frame rate : 30.000 FPS
Minimum frame rate : 1.873 FPS
frame rate : 90 000.000 FPS
Color space : YUV
Chroma subsampling : 4:2:0
Bit depth : 8 bits
Scan type : Progressive
Bits/(Pixel*Frame) : 0.117
Stream size : 2.65 GiB (94%)
Color range : Limited
Color primaries : BT.601 PAL
Transfer characteristics : BT.601
Matrix coefficients : BT.470 System B/G
Codec configuration box : avcC

Road to Power Struggle 2020

Audio
ID : 2
Format : AAC LC
Format/Info : Advanced Audio
Codec ID : mp4a-40-2
Duration : 3 h 28 min
Bit rate mode : Constant
Bit rate : 99.0 kb/s
Channel(s) : 2 channels
Channel layout : L R
Sampling rate : 44.1 kHz
Frame rate : 43.066 FPS
Compression mode : Lossy
Stream size : 147 MiB (5%)
Default : Yes
Alternate group : 1

 

 

 

Watch NJPW Day 8 Road to Power Struggle 2020

 

 

 

 

Watch online

 

 

 

 

 

Server 1

 

 

 

 

Road to Power Struggle 2020

 

 

 

 

Server-2

 

 

 

watch now

 

 

 

 

 

Uploaded By Site DX-TV.com

 

 

 

 

Download Free Links with normal and high Speed [ more 14 hosts ]  

 

[su_expand more_text=”Show Hosts Info” less_text=”Close all Info” height=”30″ text_color=”#000000″ link_color=”#e25f8b” link_style=”button” more_icon=”icon: arrow-down” less_icon=”icon: arrow-up”]

 

 

hexupload.net – clicknupload.co – www.multiup.org – uptobox.com – anonfiles.com – userscloud.com –

dropapk.to alfafile.net – ddownload.com – rockfile.co – 1fichier.com – filedown.org – katfile.com – filerio.in

 

 

[/su_expand]

 

 

 

http://shrt10.com/cFjQU6
http://shrt10.com/2YODm9h3
http://shrt10.com/PCq9m
http://shrt10.com/jyLAkzXz
http://shrt10.com/oQ9wIKh

 

 

 

Download Links with premium High Speed   

 

 

 

 

dropapk.to

 

 

 

nitroflare.com

 

 

 

rapidgator.net

 

 

 

uploaded.net

 

 

 

uploadgig.com

 

 

 

 

 

dx-tv.com

 

urlfree.net

You May Also Like

Leave a Reply

Your email address will not be published. Required fields are marked *

This site uses Akismet to reduce spam. Learn how your comment data is processed.