Watch WWE Story Time S04E04 Not According To Plan

WWE Story Time S04E04 Not According To Plan 1080p DX-TV

Watch WWE

 

 Watch WWE
 


 

 

Watch WWE Story Time S04E04 Not According To Plan

 

 

 

 

Complete name : WWE.Story.Time.S04E04.Not.According.To.Plan.1080p.WEB.h264-HEEL.mp4
Format : MPEG-4
Format profile : Base Media
Codec ID : isom
File size : 959 MiB
Duration : 17 min 23 s
Overall bit rate mode : Variable
Overall bit rate : 7 703 kb/s
Writing application : Lavf58.32

Watch WWE

Video
ID : 1
Format : AVC
Duration : 17 min 23 s
Bit rate : 7 808 kb/s
Width : 1 920 pixels
Height : 1 080 pixels
Display aspect ratio : 16:9
Frame rate : 30.000 FPS
Color space : YUV
Chroma : 4:2:0
Bit depth : 8 bits
Scan type : Progressive
Bits/(Pixel*Frame) : 0.126
Stream size : 933 MiB (97%)

Watch WWE

Audio
ID : 2
Format : AAC LC
Format/Info : Advanced Audio
Codec ID : mp4a-40-2
Duration : 17 min 23 s
Bit rate mode : Variable
Bit rate : 192 kb/s
Maximum bit rate : 344 kb/s
Channel(s) : 2 channels
Channel layout : L R
Sampling rate : 48.0 kHz
Frame rate : 46.875 FPS
Compression mode : Lossy
Stream size : 24.0 MiB (3%)
Default : Yes
Alternate group : 1

 

 

 

Watch WWE Story Time S04E04 Not According To Plan

 

 

 

 

Watch online

 

 

 

 

 

Server 1

 

 

 

 

Watch WWE

 

 

 

 

Server-2

 

 

 

watch now

 

 

 

 

Uploaded By Site DX-TV.com

 

 

 

 

Download Free Links with normal and high Speed [ more 14 hosts ]  

 

[su_expand more_text=”Show Hosts Info” less_text=”Close all Info” height=”30″ text_color=”#000000″ link_color=”#e25f8b” link_style=”button” more_icon=”icon: arrow-down” less_icon=”icon: arrow-up”]

Watch WWE

 

hexupload.net – clicknupload.co – www.multiup.org – uptobox.com – anonfiles.com – userscloud.com – 

 

 

[/su_expand]

 

 

http://shrt10.com/jSzKRot
http://shrt10.com/dwv0tu
http://shrt10.com/2vHU3Hj
http://shrt10.com/yqkto
http://shrt10.com/kIBqE
http://shrt10.com/HFzXID2MR
http://shrt10.com/AvXJJOTza
http://shrt10.com/HWVwtYM

 

Watch WWE

 

 

Download Links with premium High Speed   

 

 

 

 

dropapk.to

 

 

 

nitroflare.com

 

 

 

rapidgator.net

 

 

 

uploaded.net

 

 

 

uploadgig.com

 

 

 

 

 

dx-tv.com

 

urlfree.net

You May Also Like

Leave a Reply

Your email address will not be published. Required fields are marked *

This site uses Akismet to reduce spam. Learn how your comment data is processed.