Watch Invicta FC 39 1080p Full Show Online

Watch Invicta FC 39 1080p Full Show Online DX-TV

 

 

 

 Invicta 39

 

 

 

 

Watch Invicta FC 39 1080p Full Show Online

 

 

 

 

 

Complete name : Invicta.FC.39.1080p.WEB.mp4
Format : MPEG-4
Format profile : Base Media
Codec ID : isom
File size : 6.77 GiB
Duration : 3 h 13 min
Overall bit rate mode : Variable
Overall bit rate : 5 011 kb/s
Writing application : Lavf58.12.100

Video
ID : 1
Format : AVC
Duration : 3 h 13 min
Bit rate mode : Variable
Bit rate : 4 899 kb/s
Width : 1 920 pixels
Height : 1 080 pixels
Display aspect ratio : 16:9
Frame rate mode : Variable
Frame rate : 30.000 FPS
Minimum frame rate : 15.000 FPS
Maximum frame rate : 90 000.000 FPS
Color space : YUV
Chroma subsampling : 4:2:0
Bit depth : 8 bits
Scan type : Progressive
Bits/(Pixel*Frame) : 0.079
Stream size : 6.58 GiB (97%)
Audio
ID : 2
Format : AAC LC
Format/Info : Advanced Audio Codec Low Complexity
Codec ID : mp4a-40-2
Duration : 3 h 13 min
Bit rate mode : Constant
Bit rate : 128 kb/s
Channel(s) : 2 channels
Channel layout : L R
Sampling rate : 48.0 kHz
Frame rate : 46.875 FPS (1024 SPF)
Compression mode : Lossy
Stream size : 177 MiB (3%)
Default : Yes
Alternate group : 1

 

 

 

Watch online

 

 

Server 1

 

 

 

 

 

 

 

 

 

 

 

Server 2

 

 

 

 

 

 

 

 

 

 

Server–3

 

 

 

 

 

 

 

 

 

Watch Invicta FC 39 1080p Full Show Online

 

 

 

Uploaded By Site DX-TV.com

 

 

 

1fichier.com 

htps://shrt10.com/jjHcTjq1
https://shrt10.com/53lBMHuZ
https://shrt10.com/QQ84jy
https://shrt10.com/KI8RYL4h

 

DDL.to

https://shrt10.com/8WoAm
https://shrt10.com/Qb3NGUBX
https://shrt10.com/P6C6xU2e
https://shrt10.com/nVhtJ

 

dl.free.fr

https://shrt10.com/kSFhzddo
https://shrt10.com/0BGOvNGb
https://shrt10.com/D2aWJ6JTt
https://shrt10.com/fiP4Y

 

earn4files.com

https://shrt10.com/9wvWCte
https://shrt10.com/sFyNa7dgU
https://shrt10.com/yBFZVL5
https://shrt10.com/d8fTnT6Lv

 

rockfile.co

https://shrt10.com/zyLJRvY
https://shrt10.com/U6e1NTe
https://shrt10.com/D1XkJX
https://shrt10.com/QOeaG

 

 

Download with premium account Links 

 

 

Keep2Share

 

 

nitroflare.com

 

 

rapidgator.net

 

 

uploadgig.com

 

 

 

dx-tv.com