Invicta FC 39 720p Full Show Online

Invicta FC 39 720p Full Show Online DX-TV

 

 

 

 Invicta 39

 

 

 

 

Invicta FC 39 720p Full Show Online

 

 

 

 

 

Complete name : Invicta.FC.39.720p.mp4
Format : MPEG-4
Format profile : Base Media
Codec ID : isom
File size : 4.33 GiB
Duration : 3 h 13 min
Overall bit rate mode : Variable
Overall bit rate : 3 204 kb/s
Writing application : Lavf58.12.100

Video
ID : 1
Format : AVC
Format/Info : Advanced Video Codec
Codec ID/Info : Advanced Video Coding
Duration : 3 h 13 min
Bit rate mode : Variable
Bit rate : 3 066 kb/s
Maximum bit rate : 3 159 kb/s
Width : 1 280 pixels
Height : 720 pixels
Display aspect ratio : 16:9
Frame rate mode : Variable
Frame rate : 30.000 FPS
Minimum frame rate : 15.000 FPS
Maximum frame rate : 90 000.000 FPS
Standard : NTSC
Color space : YUV
Chroma subsampling : 4:2:0
Bit depth : 8 bits
Scan type : Progressive
Bits/(Pixel*Frame) : 0.111
Stream size : 4.14 GiB (96%)
Color primaries : BT.709
Transfer characteristics : BT.709
Matrix coefficients : BT.709
Codec configuration box : avcC

Audio
ID : 2
Format : AAC LC
Codec ID : mp4a-40-2
Duration : 3 h 13 min
Bit rate mode : Variable
Bit rate : 128 kb/s
Maximum bit rate : 138 kb/s
Channel(s) : 2 channels
Channel layout : L R
Sampling rate : 48.0 kHz
Frame rate : 46.875 FPS (1024 SPF)
Compression mode : Lossy
Stream size : 177 MiB (4%)
Default : Yes
Alternate group : 1

 

 

Watch online

 

 

Server 1

 

 

 

 

 

 

 

 

 

 

 

Server 2

 

 

 

 

 

 

 

 

 

 

Server–3

 

 

 

 

 

 

 

 

 

Invicta FC 39 720p Full Show Online

 

 

 

Uploaded By Site DX-TV.com

 

 

 

 

 

1fichier.com 

https://shrt10.com/AJNra2ZpK
https://shrt10.com/qztSu17
https://shrt10.com/aGwBN

 

DDL.to

https://shrt10.com/FxGko
https://shrt10.com/cDE8DYfS
https://shrt10.com/tOElmZGY

 

dl.free.fr

https://shrt10.com/ohOeOYt57
https://shrt10.com/nW11Vnn
https://shrt10.com/ydOvO

 

earn4files.com

https://shrt10.com/a9YHhwdB
https://shrt10.com/O0gJE
https://shrt10.com/tXZrdQ

 

rockfile.co

 

https://shrt10.com/t2Vqcs
https://shrt10.com/nXzF9GX09
https://shrt10.com/2CH8Ar5

 

Download with premium account Links 

 

 

Keep2Share

 

 

nitroflare.com

 

 

rapidgator.net

 

 

uploadgig.com

 

 

 

dx-tv.com