Watch iMPACT Wrestling Hard To Kill 2020 HDTV NWCHD

Watch Online iMPACT Wrestling Hard To Kill 2020 HDTV NWCHD DX-TV

 

 

Impact Wrestling

 

 

 

 

dx-tv.com

 

 

 

 

Watch iMPACT Wrestling Hard To Kill 2020 HDTV NWCHD

 

 

 

 

 

Complete name : iMPACT.Wrestling.Hard.To.Kill.2020.HDTV.x264-NWCHD.mp4
Format : MPEG-4
Format profile : Base Media / Version 2
Codec ID : mp42 (isom/iso2/avc1/mp41)
File size : 1.92 GiB
Duration : 2 h 51 min
Overall bit rate mode : Variable
Overall bit rate : 1 600 kb/s

Video
ID : 1
Format : AVC
Duration : 2 h 51 min
Bit rate : 1 400 kb/s
Width : 704 pixels
Height : 400 pixels
Display aspect ratio : 16:9
Frame rate mode : Constant
Frame rate : 29.970 (30000/1001) FPS
Color space : YUV
Chroma subsampling : 4:2:0
Bit depth : 8 bits
Scan type : Progressive
Bits/(Pixel*Frame) : 0.166
Stream size : 1.68 GiB (88%)
Color range : Limited
Color primaries : BT.709
Transfer characteristics : BT.709
Matrix coefficients : BT.709
Codec configuration box : avcC

Audio
ID : 2
Format : AAC LC
Format/Info : Advanced Audio Codec Low Complexity
Codec ID : mp4a-40-2
Duration : 2 h 51 min
Bit rate mode : Variable
Bit rate : 192 kb/s
Channel(s) : 2 channels
Channel layout : L R
Sampling rate : 48.0 kHz
Frame rate : 46.875 FPS (1024 SPF)
Compression mode : Lossy
Stream size : 237 MiB (12%)
Title : Stereo / Stereo
Default : Yes
Alternate group : 1
Encoded date : UTC 2020-01-13 04:09:20
Tagged date : UTC 2020-01-13 04:09:20

 

 

 

 

 

 

Watch online

 

Server 1

 

 

 

watch now

 

 

 

 

Watch iMPACT Wrestling Hard To Kill 2020 HDTV NWCHD

 

 

 

Uploaded By Site DX-TV.com

 

 

 

 

Download VIP Members FTP Link and Free Links 

 

 

Limited Time will be removed after 30 days if you need available again pm email admin

 

[member]
 

FTP Link Download high speed

 

[/member]

1fichier.com 

 

 

 

dailyuploads.net

 

 

earn4files.com

 

 

dl.free.fr

 

 

katfile.com

 

 

rockfile.co

 

 

uploadbank.com 

 

 

 

 

 

Download with premium account Links 

 

 

nitroflare.com

 

 

rapidgator.net

 

 

uploaded.net