Watch iMPACT Wrestling Hard To Kill 2020 720p

Watch iMPACT Wrestling Hard To Kill 2020 720p DX-TV

 

 

Impact Wrestling

 

 

 

 

dx-tv.com

 

 

 

 

Watch iMPACT Wrestling Hard To Kill 2020 720p

 

 

 

 

 

Complete name : iMPACT.Wrestling.Hard.To.Kill.2020.720p.HDTV.x264-NWCHD.mp4
Format : MPEG-4
Format profile : Base Media
File size : 5.65 GiB
Duration : 2 h 51 min
Overall bit rate mode : Variable
Overall bit rate : 4 705 kb/s

Video
ID : 1
Format : AVC
Format/Info : Advanced Video Codec
Codec ID : avc1
Codec ID/Info : Advanced Video Coding
Duration : 2 h 51 min
Bit rate : 4 500 kb/s
Width : 1 280 pixels
Height : 720 pixels
Display aspect ratio : 16:9
Frame rate mode : Constant
Frame rate : 29.970 (30000/1001) FPS
Color space : YUV
Chroma subsampling : 4:2:0
Bit depth : 8 bits
Scan type : Progressive
Bits/(Pixel*Frame) : 0.163
Stream size : 5.41 GiB (96%)
Color range : Limited
Color primaries : BT.709
Transfer characteristics : BT.709
Matrix coefficients : BT.709
Codec configuration box : avcC

Audio
ID : 2
Format : AAC LC
Format/Info : Advanced Audio Codec Low Complexity
Codec ID : mp4a-40-2
Duration : 2 h 51 min
Bit rate mode : Variable
Bit rate : 192 kb/s
Channel(s) : 2 channels
Channel layout : L R
Sampling rate : 48.0 kHz
Frame rate : 46.875 FPS (1024 SPF)
Compression mode : Lossy
Stream size : 237 MiB (4%)
Title : Stereo / Stereo
Default : Yes
Alternate group : 1

 

 

 

Watch online

 

 

Server 1

 

 

 

 

 

watch now

 

 

 

 

Watch iMPACT Wrestling Hard To Kill 2020 720p

 

 

 

Uploaded By Site DX-TV.com

 

 

 

 

Download VIP Members FTP Link and Free Links 

 

 

Limited Time will be removed after 30 days if you need available again pm email admin

 

[member]

FTP Link Download high speed

 

[/member]

1fichier.com 

 

 

dailyuploads.net

 

https://dailyuploads.net/1jzf76i9v0aq

https://dailyuploads.net/51rv6vbn6pun

 

earn4files.com

 

 

dl.free.fr

 

http://dl.free.fr/j84SsVNEQ

http://dl.free.fr/oam2CumcT

 

 

Download with premium account Links 

 

 

nitroflare.com

 

 

rapidgator.net

 

 

 

uploaded.net

 

http://ul.to/15a4znw7

http://ul.to/nb67ikha

 

%d bloggers like this: