Watch iMPACT Wrestling 2020 Bash At The Brewery 2 1080p

Watch Online iMPACT Wrestling 2020 01 10 Bash At The Brewery 2 1080p Fixed DX-TV

 

 

Impact Wrestling

 

 

 

 

dx-tv.com

 

 

 

 

Watch iMPACT Wrestling 2020 Bash At The Brewery 2 1080p

 

 

 

 

 

Complete name : iMPACT.Wrestling.2020.01.10.Bash.At.The.Brewery.2.REPACK.1080p.WEB.h264-HEEL.mp4
Format : MPEG-4
Format profile : Base Media
File size : 5.80 GiB
Duration : 3 h 15 min
Overall bit rate : 4 250 kb/s
Writing application : Lavf58.30.100

Video
ID : 1
Format : AVC
Duration : 3 h 15 min
Bit rate : 4 047 kb/s
Width : 1 920 pixels
Height : 1 080 pixels
Display aspect ratio : 16:9
Frame rate mode : Variable
Frame rate : 29.970 (29970/1000) FPS
Minimum frame rate : 1.248 FPS
Maximum frame rate : 18 000.000 FPS
Color space : YUV
Chroma subsampling : 4:2:0
Bit depth : 8 bits
Scan type : Progressive
Bits/(Pixel*Frame) : 0.065
Stream size : 5.52 GiB (95%)
Codec configuration box : avcC

Audio
ID : 2
Format : AAC LC
Codec ID : mp4a-40-2
Duration : 3 h 15 min
Bit rate mode : Constant
Bit rate : 192 kb/s
Channel(s) : 2 channels
Channel layout : L R
Sampling rate : 44.1 kHz
Frame rate : 43.066 FPS (1024 SPF)
Compression mode : Lossy
Stream size : 268 MiB (5%)
Default : Yes
Alternate group : 1

 

 

 

 

 

 

Watch online

 

Server 1

 

 

 

 

 

watch now

 

 

 

 

 

Watch iMPACT Wrestling 2020 Bash At The Brewery 2 1080p

 

 

 

Uploaded By Site DX-TV.com

 

 

 

 

 

Download VIP Members FTP server Download 1 Link and Free Links 

 

 

 

Limited Time will be removed after 90 days if you need available again pm email admin

 

[member]
 

FTP Link Download high speed

[/member]

1fichier.com 

 

 

 

earn4files.com

 

 

 

 

 

Download with premium account Links 

 

 

nitroflare.com

 

 

rapidgator.net