Watch GCW 2020 01 11 I Cant Feel My Face 720p

Watch Online GCW 2020 01 11 I Cant Feel My Face 720p DX-TV

 

 

wwe raw

 

 

 

 

dx-tv.com

 

 

 

 

Watch Online GCW 2020 01 11 I Cant Feel My Face 720p

 

 

 

 

 

Complete name : GCW.2020.01.11.I.Cant.Feel.My.Face.720p.WEB-DL.x264-ENP.mp4
Format : MPEG-4
Format profile : Base Media
File size : 2.74 GiB
Duration : 3 h 10 min
Overall bit rate : 2 063 kb/s
Writing application : Lavf58.20.100

Video
ID : 1
Format : AVC
Format/Info : Advanced Video Codec
Codec ID/Info : Advanced Video Coding
Duration : 3 h 10 min
Bit rate : 1 925 kb/s
Width : 1 280 pixels
Height : 720 pixels
Display aspect ratio : 16:9
Frame rate mode : Variable
Frame rate : 29.970 (29970/1000) FPS
Minimum frame rate : 5.988 FPS
Maximum frame rate : 30.303 FPS
Color space : YUV
Chroma subsampling : 4:2:0
Bit depth : 8 bits
Scan type : Progressive
Bits/(Pixel*Frame) : 0.070
Stream size : 2.56 GiB (93%)
Codec configuration box : avcC

Audio
ID : 2
Format : AAC LC
Format/Info : Advanced Audio Codec Low Complexity
Codec ID : mp4a-40-2
Duration : 3 h 10 min
Bit rate mode : Constant
Bit rate : 128 kb/s
Channel(s) : 2 channels
Channel layout : L R
Sampling rate : 48.0 kHz
Frame rate : 46.875 FPS (1024 SPF)
Compression mode : Lossy
Stream size : 174 MiB (6%)
Default : Yes
Alternate group : 1

 

 

 

 

 

 

Watch online

 

 

Server 1

 

 

 

 

watch now

 

 

 

Watch Online GCW 2020 01 11 I Cant Feel My Face 720p

 

 

 

Uploaded By Site DX-TV.com

 

 

 

 

 

Download VIP Members FTP server Download 1 Link and Free Links 

 

 

 

Limited Time will be removed after 90 days if you need available again pm email admin

 

This section is only available to registered users.

 

1fichier.com 

 

 

dl.free.fr

 

 

earn4files.com

 

 

 

 

Download with premium account Links 

 

 

nitroflare.com

 

 

rapidgator.net

 

 

uploaded.net

 

 

 

 

 

 

 

 

 

Categories



Archives