Watch iMPACT Wrestling 1080p 10 11 2020 Online

 iMPACT Wrestling 1080p 10 11 2020 Online DX-TV

 

MPACT Wrestling 10 11 2020

 Watch iMPACT Wrestling
 


 

 

Watch iMPACT Wrestling 1080p 10 11 2020 Online

 

X-Division Champion Rohit Raju vs TJP – X-Division Championship (Last Chance for TJP)

TJP jumpstarts the match with a dropkick under the ropes, catching Rohit off-guard during his entrance.

TJP follows up with a vertical suplex on the stage.

Rohit uses the referee as a shield, allowing him to capitalize off the distraction with a series of kicks.

remains in control as he continues to wear down TJP.

The challenger creates separation with an explosive tornado DDT out of the corner.

builds momentum with a springboard strike!

TJP is hanging in the tree of woe but uses incredible strength to take Rohit off the top rope.

Rohit avoids the Mamba Splash but TJP locks in a knee bar instead.

tries to use the X-Division Title as a weapon but the referee pries it out of his hands.

Rohit connects with a low blow behind the referees back, followed by a running knee to win!

 

MPACT Wrestling 10 11 2020

Complete name : iMPACT.Wrestling.2020.11.10.1080p.WEB.h264-HEEL.mp4
Format : MPEG-4
Format profile : Base Media
Codec ID : isom
File size : 2.22 GiB
Duration : 1 h 25 min
bit rate mode : Variable
Overall bit rate : 3 689 kb/s

MPACT Wrestling 10 11 2020

Video
ID : 1
Format : AVC
Duration : 1 h 25 min
Bit rate : 3 494 kb/s
Maximum bit rate : 8 643 kb/s
Width : 1 920 pixels
Height : 1 080 pixels
Display aspect ratio : 16:9
rate mode : Constant
Frame rate : 29.970 FPS
Color space : YUV
Chroma subsampling : 4:2:0
Bit depth : 8 bits
Scan type : Progressive
Bits/(Pixel*Frame) : 0.056
Stream size : 2.10 GiB (95%)
Color range : Limited
Color primaries : BT.709
Transfer characteristics : BT.709
Matrix coefficients : BT.709
Codec configuration box : avcC

MPACT Wrestling 10 11 2020

Audio
ID : 2
Format : AAC LC
Format/Info : Advanced Audio
Codec ID : mp4a-40-2
Duration : 1 h 25 min
Bit rate mode : Variable
Bit rate : 192 kb/s
Maximum bit rate : 227 kb/s
Channel(s) : 2 channels
Channel layout : L R
Sampling rate : 48.0 kHz
Frame rate : 46.875 FPS
Compression mode : Lossy
Stream size : 118 MiB (5%)
Language : English

 

 

 

Watch iMPACT Wrestling 1080p 10 11 2020 Online

 

Watch online

 

 

Server 1

 

 

 

 

MPACT Wrestling 10 11 2020

 

 

 

 

Server-2

 

 

 

watch now

 

 

 

 

 

 

Uploaded By Site DX-TV.com

 

 

 

 

Download Free Links with normal and high Speed [ more 14 hosts ]  

 

[su_expand more_text=”Show Hosts Info” less_text=”Close all Info” height=”30″ text_color=”#000000″ link_color=”#e25f8b” link_style=”button” more_icon=”icon: arrow-down” less_icon=”icon: arrow-up”]

 

MPACT Wrestling 10 11 2020

hexupload.net – clicknupload.co – www.multiup.org – uptobox.com – anonfiles.com – userscloud.com –

dropapk.to alfafile.net – ddownload.com – rockfile.co – 1fichier.com – filedown.org – katfile.com – filerio.in

 

 

[/su_expand]

 

 

http://shrt10.com/jM9p9Sien
http://shrt10.com/kQbjGBzm
http://shrt10.com/31FMJ
http://shrt10.com/RgtaYf0
http://shrt10.com/qjyNzg
http://shrt10.com/zpVxhxA

 

 

 

 

Download Links with premium High Speed   

 

 

 

 

dropapk.to

 

 

 

nitroflare.com

 

 

 

rapidgator.net

 

 

 

uploaded.net

 

 

 

uploadgig.com

 

 

 

 

 

dx-tv.com

 

urlfree.net

You May Also Like

Leave a Reply

Your email address will not be published. Required fields are marked *

This site uses Akismet to reduce spam. Learn how your comment data is processed.