Watch Wrestling ICW Pitfighter X3 -No Holds Barred 2020

Wrestling ICW Pitfighter X3 -No Holds Barred 2020 11 06 Free Online DX-TV

 

Watch Wrestling ICW Pitfighter X3

 WWE RAW

Watch Wrestling ICW Pitfighter X3 -No Holds Barred 2020

 

 

 

ICW NO HOLDS BARRED
Friday, November 6th, 2020
From The Blood Shed – Featuring:

Neil Diamond Cutter vs Dale Patricks

Satu Jinn vs Casanova Valentine

Daniel Garcia vs Justin Kyle

Nolan Edward vs Dan Maff

Tony Deppen vs Jeff Cannonball

Eric Ryan vs Reed Bentley

Atticus Cogar vs AKIRA

SHLAK vs John Wayne Murdoch

Watch Wrestling ICW Pitfighter X3

Complete name : ICW Pitfighter X3.mp4
Format : MPEG-4
Format profile : Base Media
File size : 2.07 GiB
Duration : 2 h 57 min
Overall bit rate : 1 674 kb/s
Writing application : Lavf58

Watch Wrestling ICW Pitfighter X3

Video
ID : 1
Format : AVC
Format/Info : Advanced
Duration : 2 h 57 min
Bit rate : 1 536 kb/s
Width : 1 280 pixels
Height : 720 pixels
Display aspect ratio : 16:9
Frame rate mode : Variable
Frame rate : 29.970 FPS
Color space : YUV
Chroma subsampling : 4:2:0
Bit depth : 8 bits
Scan type : Progressive
Bits/(Pixel*Frame) : 0.056
Stream size : 1.90 GiB (92%)

 Wrestling ICW Pitfighter X3

Audio
ID : 2
Format : AAC LC
Format/Info : Advanced Audio
Codec ID : mp4a-40-2
Duration : 2 h 57 min
Bit rate mode : Constant
Bit rate : 132 kb/s
Channel(s) : 2 channels
Channel layout : L R
Sampling rate : 48.0 kHz
Frame rate : 46.875 FPS (1024 SPF)
Compression mode : Lossy
Stream size : 165 MiB (8%)
Default : Yes
Alternate group : 1

Watch Wrestling ICW Pitfighter X3

CW PITFIGHTER X3
ICW NO HOLDS BARRED
Friday, November 6th, 2020
From The Blood Shed – Featuring:

Neil Diamond Cutter vs Dale Patricks
Satu Jinn vs Casanova Valentine
Daniel Garcia vs Justin Kyle
Nolan Edward vs Dan Maff
Tony Deppen vs Jeff Cannonball
Eric Ryan vs Reed Bentley
Atticus Cogar vs AKIRA
SHLAK vs John Wayne Murdoch

 

 

 

Watch Wrestling ICW Pitfighter X3 -No Holds Barred 2020

 

Watch online

 

 

Server 1

 

 

 

 

Watch Wrestling ICW Pitfighter X3

 

 

 

 

Server-2

 

 

 

watch now

 

 

 

 

 

 

Uploaded By Site DX-TV.com

 

 

 

 

Download Free Links with normal and high Speed [ more 14 hosts ]  

 

[su_expand more_text=”Show Hosts Info” less_text=”Close all Info” height=”30″ text_color=”#000000″ link_color=”#e25f8b” link_style=”button” more_icon=”icon: arrow-down” less_icon=”icon: arrow-up”]

 

 

hexupload.net – clicknupload.co – www.multiup.org – uptobox.com – anonfiles.com – userscloud.com –

dropapk.to alfafile.net – ddownload.com – rockfile.co – 1fichier.com – filedown.org – katfile.com – filerio.in

 

 

[/su_expand]

 

 

 

http://shrt10.com/gdia4v
http://shrt10.com/UWw43
http://shrt10.com/DnMmOxpR
http://shrt10.com/CzwKIYNl
http://shrt10.com/aYbRd
http://shrt10.com/ETEJy
http://shrt10.com/COxMjYoeA

 

 

 

Download Links with premium High Speed   

 

 

 

 

dropapk.to

 

 

 

nitroflare.com

 

 

 

rapidgator.net

 

 

 

uploaded.net

 

 

 

uploadgig.com

 

 

 

 

 

dx-tv.com

 

urlfree.net

You May Also Like

2 Comments

  1. Why so many ads? How come the ads dont allow you to skip? Why do they get stuck at 5 seconds and dont move?

    1. now you see 1 popup ads only and banner
      please note without this ads i can’t continue work

Comments are closed.