Watch ICW Fight Club 125 1080p 2019 full show free mp4

 

 

 

 


 

 

dx-tv.com

 

 

 

 

 

Complete name : ICW Fight Club 125.mp4
Format : MPEG-4
Format profile : Base Media
Codec ID : isom (isom/iso2/avc1/mp41)
File size : 1.19 GiB
Duration : 54 min 51 s
Overall bit rate : 3 102 kb/s

Video
ID : 1
Format : AVC
Format/Info : Advanced Video Codec
Format settings, Reference : 3 frames
Codec ID : avc1
Codec ID/Info : Advanced Video Coding
Duration : 54 min 51 s
Bit rate : 2 968 kb/s
Width : 1 920 pixels
Height : 1 080 pixels
Display aspect ratio : 16:9
Frame rate mode : Constant
Frame rate : 25.000 FPS
Color space : YUV
Chroma subsampling : 4:2:0
Bit depth : 8 bits
Scan type : Progressive
Bits/(Pixel*Frame) : 0.057
Stream size : 1.14 GiB (96%)
Writing library : x264 core 155 r2901 7d0ff22
Color range : Limited
Color primaries : BT.709
Transfer characteristics : BT.709
Matrix coefficients : BT.709
Codec configuration box : avcC

Audio
ID : 2
Format : AAC LC
Format/Info : Advanced Audio Codec Low Complexity
Codec ID : mp4a-40-2
Duration : 54 min 51 s
Bit rate mode : Constant
Bit rate : 128 kb/s
Channel(s) : 2 channels
Channel layout : L R
Sampling rate : 44.1 kHz
Frame rate : 43.066 FPS (1024 SPF)
Compression mode : Lossy
Stream size : 50.2 MiB (4%)
Language : English
Default : Yes
Alternate group : 1

 

 

 

 

 


 

 

Watch ICW Fight Club 125 1080p 2019 full show free mp4

 

 

 

 

Watch online

 

 

Waiting finish converting video

 

 

Server 1

 

 

 

 

 


 

 


 


 

 

Uploaded By Site DX-TV.com

 

 

 

open rar file to see this password

 

 

 

 

The password : DX-TV.com

 

 

 

 

Uploaded.net + rapidgator.net + katfile.com + bitster.cz

 

 

 

 


 

 
https://shrt10.com/YuZFSV
 

 

 
https://shrt10.com/BDAN0PS
 

 

 
https://shrt10.com/ZXzswje9
 

 

 
https://shrt10.com/7qO9x

 

 

 

 

 

Watch ICW Fight Club 125 1080p 2019 full show free mp4