Watch LFA 65 2019 05 04 HDTV 720p ENG dds full show free mp4

 

 

 

 


 

 

 

dx-tv.com

 

 

 

 

 
Complete name : LFA 65- Royval vs. Sanchez_HDTVRip 720p_ENG-dds.mp4
Format : MPEG-4
Format profile : Base Media
Codec ID : isom (isom/iso2/avc1/mp41)
File size : 3.16 GiB
Duration : 2 h 25 min
Overall bit rate mode : Variable
Overall bit rate : 3 106 kb/s

Video
ID : 1
Format : AVC
Format/Info : Advanced Video Codec
Format settings, Reference : 3 frames
Codec ID : avc1
Codec ID/Info : Advanced Video Coding
Duration : 2 h 25 min
Bit rate mode : Variable
Bit rate : 2 908 kb/s
Width : 1 280 pixels
Height : 720 pixels
Display aspect ratio : 4:3
Frame rate mode : Constant
Frame rate : 29.970 (30000/1001) FPS
Standard : Component
Color space : YUV
Chroma subsampling : 4:2:0
Bit depth : 8 bits
Scan type : Progressive
Bits/(Pixel*Frame) : 0.105
Stream size : 2.95 GiB (94%)
Color range : Limited
Color primaries : BT.709
Transfer characteristics : BT.709
Matrix coefficients : BT.709
Menus : 3
Codec configuration box : avcC

Audio
ID : 2
Format : AAC LC
Format/Info : Advanced Audio Codec Low Complexity
Codec ID : mp4a-40-2
Duration : 2 h 25 min
Duration_LastFrame : -21 ms
Bit rate mode : Constant
Bit rate : 192 kb/s
Channel(s) : 2 channels
Channel layout : L R
Sampling rate : 48.0 kHz
Frame rate : 46.875 FPS (1024 SPF)
Compression mode : Lossy
Stream size : 197 MiB (6%)
Language : English
Default : Yes
Alternate group : 1
Menus : 3

 

 

 

 

 


 

 

 

Watch LFA 65 2019 05 04 HDTV 720p ENG dds full show free mp4

 

 

 

 

Watch online

 

 

Waiting finish converting video

 

 

Server 1

 

 

 

 

 


 

 

 


 

 


 

 

 

Uploaded By Site DX-TV.com

 

 

 

open rar file to see this password

 

 

 

 

The password : DX-TV.com

 

 

 

 

Uploaded.net + rapidgator.net + katfile.com + bitster.cz

 

 

 

 


 

 

 
https://shrt10.com/Dw34JR
 

 
https://shrt10.com/i8rd
 

 
https://shrt10.com/yj7hquaT
 

 
https://shrt10.com/cshq
 

 

 

 

 

 

Watch LFA 65 2019 05 04 HDTV 720p ENG dds full show free mp4