Watch Full Show 720p UFC Fight Night Hall Vs Silva

 Full Show 720p UFC Fight Night Hall Vs Silva Full Show Replay DX-TV

Watch UFC Fight Night Hall Vs Silva

 

 Watch UFC Fight Night Hall Vs Silva
 


 

 

Watch Full Show 720p UFC Fight Night Hall Vs Silva

 

 

 

Complete name : UFC.Fight.Night.Hall.Vs.Silva.720p.WEB.h264-DaShield.mp4
Format : MPEG-4
Format profile : Base Media
Codec ID : isom
File size : 3.89 GiB
Duration : 2 h 56 min
Overall bit rate mode : Variable
Overall bit rate : 3 151 kb/s
Writing application : Lavf53.24.2

Watch UFC Fight Night Hall Vs Silva

Video
ID : 1
Format : AVC
Duration : 2 h 56 min
Bit rate mode : Variable
Bit rate : 3 011 kb/s
Maximum bit rate : 3 159 kb/s
Width : 1 280 pixels
Height : 720 pixels
Display aspect ratio : 16:9
Frame rate mode : Variable
Frame rate : 30.000 FPS
Standard : NTSC
Color space : YUV
Chroma subsampling : 4:2:0
Bit depth : 8 bits
Scan type : Progressive
Bits/(Pixel*Frame) : 0.109
Stream size : 3.71 GiB (96%)
Color range : Limited
Color primaries : BT.709
Transfer characteristics : BT.709
Matrix coefficients : BT.709
Codec configuration box : avcC

Watch UFC Fight Night Hall Vs Silva

Audio
ID : 2
Format : AAC LC
Format/Info : Advanced Audio
Codec ID : mp4a-40-2
Duration : 2 h 56 min
Bit rate mode : Variable
Bit rate : 132 kb/s
Maximum bit rate : 234 kb/s
Channel(s) : 2 channels
Channel layout : L R
Sampling rate : 48.0 kHz
Frame rate : 46.875 FPS
Compression mode : Lossy
Stream size : 167 MiB (4%)
Default : Yes
Alternate group : 1

 

WHEN IS UFC FIGHT NIGHT ANDERSON SILVA VS URIAH HALL.

  • Date: Saturday, Oct. 31
  • Prelims: 4 p.m. ET
  • Main card: 7 p.m. ET

UFC Fight Night: Silva vs. Hall takes place Saturday night, Oct. 31.

Prelims get underway at 4 p.m. ET, followed by the main card at 7 p.m. ET.

 UFC Fight Night  Vs Silva

HOW TO WATCH UFC FIGHT NIGHT: SILVA VS. HALL TV, LIVE STREAM INFO

In the United States, the prelims and main card are on ESPN+.

In Canada, the prelims (5 p.m. ET) and main card are on TSN4 and TSN5.

In the U.K., UFC Fight Night can be seen live BT Sport 2 (prelims at 9 p.m. GMT and main card at 11 p.m.).

In Germany, Austria, Italy and Spain, the UFC Fight Night main card (Midnight CET Sunday) is available on DAZN,

More details about how to watch in other countries can be found at UFC.com. 

 

Watch Full Show 720p UFC Fight Night Hall Vs Silva

 

 

 

Watch online

 

 

 

Server 1

 

 

 

 

Watch UFC Fight Night Hall Vs Silva

 

 

 

 

Server-2

 

 

 

watch now

 

 

 

 

Uploaded By Site DX-TV.com

 

 

 

 

Download Free Links with normal and high Speed [ more 14 hosts ]  

 

[su_expand more_text=”Show Hosts Info” less_text=”Close all Info” height=”30″ text_color=”#000000″ link_color=”#e25f8b” link_style=”button” more_icon=”icon: arrow-down” less_icon=”icon: arrow-up”]

 

 

hexupload.net – clicknupload.co – www.multiup.org – uptobox.com – anonfiles.com – userscloud.com –

dropapk.to alfafile.net – ddownload.com – rockfile.co – 1fichier.com – filedown.org – katfile.com – filerio.in

 

 

[/su_expand]

 

 

 

http://shrt10.com/sYsUj
http://shrt10.com/lAvDbv6cW
http://shrt10.com/hsSLS
http://shrt10.com/Ll6ad
http://shrt10.com/RTkubYJ
http://shrt10.com/8j9bg

 

 

 

Download Links with premium High Speed   

 

 

 

 

dropapk.to

 

 

 

nitroflare.com

 

 

 

rapidgator.net

 

 

 

uploaded.net

 

 

 

uploadgig.com

 

 

 

 

 

dx-tv.com

 

urlfree.net

Leave a Reply

Your email address will not be published. Required fields are marked *

This site uses Akismet to reduce spam. Learn how your comment data is processed.