Download UFC Fight Night 1080p Hall Vs Silva

Download UFC Fight Night 1080p Hall Vs Silva Full Show Replay DX-TV

Watch UFC Fight Night Hall Vs Silva

 

 Watch UFC Fight Night Hall Vs Silva
 


 

 

Download UFC Fight Night 1080p Hall Vs Silva

 

 

Complete name : UFC.Fight.Night.182.1080p.WEB.mp4
Format : MPEG-4
Format profile : Base Media
Codec ID : isom
File size : 8.38 GiB
Duration : 3 h 23 min
Overall bit rate mode : Variable
Overall bit rate : 5 896 kb/s
Writing application : Lavf58.12.100

 UFC Fight Night Hall Vs Silva

Video
ID : 2
Format : AVC
Duration : 3 h 23 min
Bit rate mode : Variable
Bit rate : 5 754 kb/s
Maximum bit rate : 8 864 kb/s
Width : 1 920 pixels
Height : 1 080 pixels
Display aspect ratio : 16:9
Frame rate mode : Variable
Frame rate : 30.000 FPS
Color space : YUV
Chroma subsampling : 4:2:0
Bit depth : 8 bits
Scan type : Progressive
Bits/(Pixel*Frame) : 0.092
Stream size : 8.18 GiB (98%)
Codec configuration box : avcC

Watch UFC Fight Night Hall Vs Silva

Audio
ID : 3
Format : AAC LC
Format/Info : Advanced Audio
Codec ID : mp4a-40-2
Duration : 3 h 23 min
Bit rate mode : Constant
Bit rate : 132 kb/s
Channel(s) : 2 channels
Channel layout : L R
Sampling rate : 48.0 kHz
Frame rate : 46.875 FPS (1024 SPF)
Compression mode : Lossy
Stream size : 192 MiB (2%)
Default : Yes
Alternate group : 1

 

UFC Fight Night 181

One of the greatest fighters of all time competes for the last time inside the Octagon on Saturday .

at the UFC Apex in Las Vegas when former middleweight champion ,and pound-for-pound king Anderson Silva takes on Uriah Hall.

In just his second UFC fight, Silva captured the middleweight title from Rich Franklin in less than three minutes.

From there, “The Spider” went on a run for ages, winning 14 consecutive fights between 185 and 205 pounds.

Twelve of those victories came via stoppage. and set a then-UFC record of 11 straight title defenses.

After losing the middleweight strap and subsequent rematch to Chris Weidman,

the 45-year-old has dealt with a litany of injuries while going 1-4 with one no-contest in the process,

but Silva faces an ideal opponent who will have no problem standing with the famed striker.

Watch UFC Fight Night Hall Vs Silva

Hall took the MMA world by storm during his time on Season 17 of The Ultimate Fighter with his highlight-reel knockouts.

that drew comparisons far and wide to Silva, including from UFC president Dana White.

But Hall has never reached the stature of Silva, going 8-7 so far in the UFC with six wins by knockout,

which features a TKO win over former Bellator middleweight champion Gegard Mousasi in September 2015. 

you know you are watching one of the sport’s legends.

Can Silva reclaim the magic for one night, or does Hall send Silva packing with a loss on his record?

Here’s everything you need to know about UFC Fight Night: Silva vs. Hall. 

 

 

Download UFC Fight Night 1080p Hall Vs Silva

 

 

 

 

Watch online

 

 

 

 

 

Server 1

 

 

 

 

Watch UFC Fight Night Hall Vs Silva

 

 

 

 

Server-2

 

 

 

watch now

 

 

 

 

Uploaded By Site DX-TV.com

 

 

Download Links with premium High Speed   

 

 

 

nitroflare.com

 

 

 

rapidgator.net

 

 

dx-tv.com

 

urlfree.net

You May Also Like

Leave a Reply

Your email address will not be published. Required fields are marked *

This site uses Akismet to reduce spam. Learn how your comment data is processed.