Watch Dragon Gate King of Gate 2019 05 09 Day 1 720p WEB DL DX-TV free full show online

 

 

 

 


 

 

dx-tv.com

 

 

 

 

 
Complete name : Dragon Gate King of Gate 2019.05.09 Day 1 720p WEB DL x264 DX-TV.mp4
Format : MPEG-4
Format profile : Base Media / Version 2
Codec ID : mp42 (isom/iso2/avc1/mp41)
File size : 5.09 GiB
Duration : 4 h 33 min
Overall bit rate mode : Variable
Overall bit rate : 2 665 kb/s

Video
ID : 1
Format : AVC
Format/Info : Advanced Video Codec
Codec ID : avc1
Codec ID/Info : Advanced Video Coding
Duration : 4 h 33 min
Bit rate : 2 500 kb/s
Width : 1 280 pixels
Height : 720 pixels
Display aspect ratio : 16:9
Frame rate mode : Variable
Frame rate : 29.970 FPS
Minimum frame rate : 28.571 FPS
Maximum frame rate : 32.258 FPS
Color space : YUV
Chroma subsampling : 4:2:0
Bit depth : 8 bits
Scan type : Progressive
Bits/(Pixel*Frame) : 0.091
Stream size : 4.77 GiB (94%)
Color range : Limited
Color primaries : BT.709
Transfer characteristics : BT.709
Matrix coefficients : BT.709
Codec configuration box : avcC

Audio
ID : 2
Format : AAC LC
Format/Info : Advanced Audio Codec Low Complexity
Codec ID : mp4a-40-2
Duration : 4 h 33 min
Bit rate mode : Variable
Bit rate : 160 kb/s
Channel(s) : 2 channels
Channel layout : L R
Sampling rate : 48.0 kHz
Frame rate : 46.875 FPS (1024 SPF)
Compression mode : Lossy
Stream size : 313 MiB (6%)
Title : Stereo / Stereo
Default : Yes
Alternate group : 1

 

 

 

 

 


 

Watch Dragon Gate King of Gate 2019 05 09 Day 1 720p WEB DL DX-TV free full show online

 

 

 

 

Watch online

 

 

Waiting finish converting video

 

 

Server 1

 

 

 

 

 

 

 

 

 

 

 

 

 

Server 2

 

 

 

 

 

 

 

 

 

 

 


 

Uploaded By Site DX-TV.com

 

 

 

open rar file to see this password

 

 

 

 

The password : DX-TV.com

 

 

 


 

https://shrt10.com/Na7C

 

 
https://shrt10.com/LakTh

 

 
https://shrt10.com/oNUYG9q

 

 
https://shrt10.com/T47Oz

 

 
https://shrt10.com/os8Z

 

 
https://shrt10.com/ejoiq

 

 
https://shrt10.com/r5yn30
 

 
https://shrt10.com/PJ8DvG5
 

 

 

Watch Dragon Gate King of Gate 2019 05 09 Day 1 720p WEB DL DX-TV free full show online

6 thoughts on “Watch Dragon Gate King of Gate 2019 05 09 Day 1 720p WEB DL DX-TV free full show online

Comments are closed.