Watch Bellator 253 Free 720p Full Show Online

Bellator 253 Free 720p Full Show Online DX-TV

Bellator 253 Free

 

 Bellator 253 Free

 

Watch Bellator 253 Free 720p Full Show Online

 

 

[su_expand more_text=”Show More Info” less_text=”Close all Info” height=”30″ text_color=”#000000″ link_color=”#e25f8b” link_style=”button” more_icon=”icon: arrow-down” less_icon=”icon: arrow-up”]

 

Complete name : Bellator.253.Caldwell.vs.McKee.720p.HDTV.x264-Star.mkv
Format : Matroska
Format version : Version 4
File size : 1.96 GiB
Duration : 1 h 28 min
Overall bit rate : 3 174 kb/s

Bellator 253 Free

Video
ID : 1
Format : AVC
Duration : 1 h 28 min
Bit rate : 3 000 kb/s
Width : 1 280 pixels
Height : 720 pixels
Display aspect ratio : 16:9
Frame rate mode : Constant
Frame rate : 29.970 FPS
Color space : YUV
Chroma subsampling : 4:2:0
Bit depth : 8 bits
Scan type : Progressive
Bits/(Pixel*Frame) : 0.109
Stream size : 1.80 GiB
Color range : Limited
Color primaries : BT.709
Transfer : BT.709
Matrix : BT.709

Bellator 253 Free

Audio
ID : 2
Format : AC-3
Format/Info : Audio
Commercial name : Dolby
Codec ID : A_AC3
Duration : 1 h 28 min
Bit rate mode : Constant
Bit rate : 192 kb/s
Channel(s) : 2 channels
Channel layout : L R
Sampling rate : 48.0 kHz
Frame rate : 31.250 FPS
Compression mode : Lossy
Delay relative to video : -5 ms
Stream size : 121 MiB (6%)
Title : Stereo
Service kind : Complete Main
Default : Yes
Forced : No

Bellator 253 Free

BELLATOR 253 FULL CARD

MAIN CARD

  • Featherweight World Grand Prix Semi-final Main Event: Darrion Caldwell (15-3) vs. A.J. McKee (16-0)
  • Welterweight Co-Main Event: Benson Handerson (28-9) vs. Jason Jackson (12-4)
  • Welterweight Bout: Joey Davis (7-0) vs. Bobby Lee (12-4) 
  • Bantamweight Bout: Raufeon Stots (14-1) vs. Keith Lee (7-3)

Bellator 253 Free

PRELIMINARY FIGHTS

  • Featherweight Bout: Jeremy Kennedy (15-2, 1 NC) vs. Matt Bessette (24-9, 1 NC)
  • Welterweight Bout: Jaleel Willis (13-2) vs. Mark Lemminger (11-2)
  • Featherweight Bout: Jay-Jay Wilson (6-0) vs. Sergio de Bari (5-1)
  • Lightweight Bout: Baby Slice (3-2, 1 NC) vs. Kaheem Murray (3-3)
  • Light Heavyweight Bout: Sullivan Cauley (Pro Debut) vs. Mark Glover (Pro Debut)

 

Watch Bellator 253 Free 720p Full Show Online

 

 

[/su_expand]

 

 

Watch online

 

 

Server 1

 

 

 

 

 

 

 

 

Server-2

 

 

 

 

 

 

 

 

Uploaded By Site DX-TV.com

 

Bellator 253 Free

Download Links with premium High Speed   

 

 

 

 

dropapk.to

http://shrt10.com/c2XWwQ8GJ
http://shrt10.com/uWLfI3HiW

 

 

nitroflare.com

http://shrt10.com/SCbhJ1Z
http://shrt10.com/DoTcn3R

 

 

rapidgator.net

http://shrt10.com/U7Ce7KWV
http://shrt10.com/J7j1R8

 

 

uploaded.net

http://shrt10.com/qMDbHq
http://shrt10.com/3jOM3

 

 

uploadgig.com

http://shrt10.com/w60yG0GvI
http://shrt10.com/Kd0fXSfx

 

 

 

 

dx-tv.com

 

urlfree.net

You May Also Like

Leave a Reply

Your email address will not be published. Required fields are marked *

This site uses Akismet to reduce spam. Learn how your comment data is processed.