Watch Bellator 251 Online Full Show Free 720p

Bellator 251 Online Full Show Free 720p DX-TV

Watch Bellator 251 Online

 

 Watch Bellator 251 Online

 

Watch Bellator 251 Online Full Show Free 720p

 

Complete name : Bellator 251.Main.Card HDTV DX-TV.COM.mp4
Format : MPEG-4
Format : Base Media
Codec ID : isom
File size : 922 MiB
Duration : 2 h 4 min
Overall bit : 1 036 kb/s

Watch Bellator 251 Online

Video
ID : 1
Format : AVC
Duration : 2 h 4 min
Bit rate : 899 kb/s
Width : 850 pixels
Height : 480 pixels
Display aspect ratio : 16:9
Frame rate mode : Constant
Frame rate : 25.000 FPS
Color space : YUV
Chroma subsampling : 4:2:0
Bit depth : 8 bits
Scan type : Progressive
Bits/(Pixel*Frame) : 0.088
Stream size : 802 MiB (87%)

Watch Bellator 251 Online

Audio
ID : 2
Format : AAC LC
Format/Info : Advanced
Codec ID : mp4a-40-2
Duration : 2 h 4 min
Bit rate mode : Constant
Bit rate : 128 kb/s
Channel(s) : 2 channels
Channel layout : L R
Sampling rate : 44.1 kHz
Frame rate : 43.066 FPS
Compression mode : Lossy
Stream size : 114 MiB
Title : Track1
Default : Yes
Alternate group : 1

Watch Bellator 251 Online

BELLATOR 251: MANHOEF VS. ANDERSON FIGHT CARD

MAIN CARD

  • Melvin Manhoef vs. Corey Anderson; Light Heavyweight
  • Tyrell Fortune vs. Said Sowma; Heavyweight
  • Austin Vanderford vs. Vinicius de Jesus; Middleweight
  • Derek Anderson vs. Killys Mota; Welterweight

Bellator 251 Online

PRELIMINARY CARD

  • Georgi Karakhanyan vs. Bryce Logan; Lightweight
  • Julius Angelickas vs. Alex Polizzi; Light Heavyweight
  • Janay Harding vs. Jessica Miele; Women’s Featherweight
  • Ali Zebian vs. Piankhi Zimmerman; Lightweight
  • Jaylon Bates vs. Joe Supino; Bantamweight
  • Sumiko Inaba vs. Jessica Ruiz; Women’s Strawweight

MELVIN MANHOEF RECORD, BIO

  • Name: Melvin Manhoef
  • Nationality: Dutch
  • Born: May 11, 1976
  • Height: 5-8
  • Reach: 71 inches
  • Total fights: 49
  • Record: 32-14-1, two no-contests

 

 Bellator 251 Online Full Show Free 720p

 

 

Watch online

 

 

 

Server 1

 

 

 

 

 

 

 

 

Server-2

 

 

 

 

 

 

 

Uploaded By Site DX-TV.com

 

 

 

 

Download Free Links with normal and high Speed [ more 14 hosts ]  

 

[su_expand more_text=”Show Hosts Info” less_text=”Close all Info” height=”30″ text_color=”#000000″ link_color=”#e25f8b” link_style=”button” more_icon=”icon: arrow-down” less_icon=”icon: arrow-up”]

 Bellator 251 Online

 

 

[/su_expand]

 

 

http://shrt10.com/lVZJRq5
http://shrt10.com/vGzYE
http://shrt10.com/xF8CBUul
http://shrt10.com/HvsVZ
http://shrt10.com/dsgOnim
http://shrt10.com/tTjly9Hs
http://shrt10.com/BqPqtwq
http://shrt10.com/v26OR
http://shrt10.com/bgfNPrF
http://shrt10.com/aWMVUOD
http://shrt10.com/RPjLk
http://shrt10.com/6A5xpzpTq
http://shrt10.com/h4bSFhm

 Bellator 251 Online

 

 

 

Download Links with premium High Speed   

 

 

dropapk.to

http://shrt10.com/7shRM34
http://shrt10.com/eQi2rua

 

 

nitroflare.com

http://shrt10.com/Ym3uC4
http://shrt10.com/weU2OkRjL

 

 

rapidgator.net

http://shrt10.com/c84Jhh1Q
http://shrt10.com/CWTIrTC

 

 

uploaded.net

http://shrt10.com/pDiA2
http://shrt10.com/6LmvzIg4

 

 

uploadgig.com

http://shrt10.com/DTjobMV
http://shrt10.com/bSdjCYs98

 

 

 

 

dx-tv.com

 

urlfree.net

You May Also Like

Leave a Reply

Your email address will not be published. Required fields are marked *

This site uses Akismet to reduce spam. Learn how your comment data is processed.