Free WWE NXT UK 2020 11 05 1080p Full Show Replay

Watch Free WWE NXT UK 2020 11 05 1080p Full Show Replay DX-TV

WWE NXT UK 2020 11 05

 WWE NXT UK 2020 11 05

 

 


 

 

Free WWE NXT UK 2020 11 05 1080p Full Show Replay

 

 

Complete name : WWE.NXT.UK.2020.11.05.1080p.WEB.h264-HEEL.mp4
Format : MPEG-4
Format profile : Base Media
Codec ID : isom
File size : 2.33 GiB
Duration : 57 min 24 s
bit rate mode : Variable
Overall bit rate : 5 815 kb/s
Writing application : Lavf58.32

WWE NXT UK 2020 11 05

Video
ID : 1
Format : AVC
Duration : 57 min 24 s
Bit rate : 5 680 kb/s
Width : 1 920 pixels
Height : 1 080 pixels
Display aspect ratio : 16:9
rate mode : Variable
Frame rate : 30.000 FPS
Color space : YUV
Chroma subsampling : 4:2:0
Bit depth : 8 bits
Scan type : Progressive
Bits/(Pixel*Frame) : 0.091
Stream size : 2.28 GiB
Codec configuration box : avcC

WWE NXT UK 2020 11 05

Audio
ID : 2
Format : AAC LC
Format/Info : Advanced
Codec ID : mp4a-40-2
Duration : 57 min 24 s
Bit rate mode : Variable
Bit rate : 125 kb/s
Maximum bit rate : 138 kb/s
Channel(s) : 2 channels
Channel layout : L R
Sampling rate : 48.0 kHz
Frame rate : 46.875 FPS
Compression mode : Lossy
Stream size : 51.5 MiB
Default : Yes
Alternate group : 1

WWE NXT UK 2020 11 05

Text #1
ID : 1-CC1
Format : EIA-608
Muxing mode : SCTE 128 / DTVCC
Muxing mode, more info : Muxed in Video #1
Duration : 57 min 24 s
Bit rate mode : Constant
Stream size : 0.00 Byte (0%)
CaptionServiceName : CC1

Text #2
ID : 1-CC3
Format : EIA-608
Muxing mode : SCTE 128 / DTVCC
Muxing mode, more info : Muxed in Video #1
Duration : 57 min 24 s
Bit rate mode : Constant
Stream size : 0.00 Byte (0%)
CaptionServiceName : CC3

Text #3
ID : 1-1
Format : EIA-708
Muxing mode : SCTE 128 / DTVCC
Muxing mode, more info : Muxed in Video #1
Duration : 57 min 24 s
Bit rate mode : Constant
Stream size : 0.00 Byte (0%)

WWE NXT UK 2020 11 05

Text #4
ID : 1-2
Format : EIA-708
Muxing mode : SCTE 128 / DTVCC
Muxing mode, more info : Muxed in Video #1
Duration : 57 min 24 s
Bit rate mode : Constant
Stream size : 0.00 Byte (0%)

Text #5
ID : 1-3
Format : EIA-708
Muxing mode : SCTE 128 / DTVCC
Muxing mode, more info : Muxed in Video #1
Duration : 57 min 24 s
Bit rate mode : Constant
Stream size : 0.00 Byte (0%)

WWE NXT UK 2020 11 05

Text #6
ID : 1-4
Format : EIA-708
Muxing mode : SCTE 128 / DTVCC
Muxing mode, more info : Muxed in Video #1
Duration : 57 min 24 s
Bit rate mode : Constant
Stream size : 0.00 Byte (0%)

Text #7
ID : 1-5
Format : EIA-708
Muxing mode : SCTE 128 / DTVCC
Muxing mode, more info : Muxed in Video #1
Duration : 57 min 24 s
Bit rate mode : Constant
Stream size : 0.00 Byte (0%)

WWE NXT UK 2020 11 05

Text #8
ID : 1-6
Format : EIA-708
Muxing mode : SCTE 128 / DTVCC
Muxing mode, more info : Muxed in Video #1
Duration : 57 min 24 s
Bit rate mode : Constant
Stream size : 0.00 Byte (0%)

 

 

 

Free WWE NXT UK 2020 11 05 1080p Full Show Replay

 

 

 

 

Watch online

 

 

 

 

 

Server 1

 

 

 

 

WWE NXT UK 2020 11 05

 

 

 

 

Server-2

 

 

 

watch now

 

 

 

 

 

 

Uploaded By Site DX-TV.com

 

 

 

 

Download Free Links with normal and high Speed [ more 14 hosts ]  

 

[su_expand more_text=”Show Hosts Info” less_text=”Close all Info” height=”30″ text_color=”#000000″ link_color=”#e25f8b” link_style=”button” more_icon=”icon: arrow-down” less_icon=”icon: arrow-up”]

 

WWE NXT UK 2020 11 05

hexupload.net – clicknupload.co – www.multiup.org – uptobox.com – anonfiles.com – userscloud.com –

dropapk.to alfafile.net – ddownload.com – rockfile.co – 1fichier.com – filedown.org – katfile.com – filerio.in

 

 

[/su_expand]

 

 

http://shrt10.com/TNC604G7
http://shrt10.com/ED8AFO6he
http://shrt10.com/KF3kg7b
http://shrt10.com/Ibg8N9
http://shrt10.com/7Qj7LFssT

http://shrt10.com/1Q3yBI

 

 

 

Download Links with premium High Speed   

 

 

 

 

dropapk.to

 

 

 

nitroflare.com

 

 

 

rapidgator.net

 

 

 

uploaded.net

 

 

 

uploadgig.com

 

 

 

 

 

dx-tv.com

 

urlfree.net

You May Also Like

Leave a Reply

Your email address will not be published. Required fields are marked *

This site uses Akismet to reduce spam. Learn how your comment data is processed.