Watch AEW Revolution 2020 1080p PPV

AEW Revolution 2020 1080p PPV XWT DX-TV

Watch AEW

AEW Revolution 2020

 

 

Watch AEW Revolution 2020 1080p PPV

 

Complete name : AEW.Revolution.2020.1080p.WEB.H264-XWT.mp4
Format : MPEG-4
Format profile : Base Media
Codec ID : isom
File size : 7.83 GiB
Duration : 3 h 31 min
Overall bit rate : 5 293 kb/s
Writing application : Watch AEW

Video
ID : 1
Format : AVC
Duration : 3 h 31 min
Bit rate : 5 094 kb/s
Width : 1 920 pixels
Height : 1 080 pixels
Display aspect ratio : 16:9
Frame rate mode : Watch AEW
Frame rate : 29.970 (30000/1001) FPS
Minimum frame rate : 29.970 FPS
Maximum frame rate : 30.000 FPS
Standard : Component
Color space : YUV
Chroma subsampling : 4:2:0
Bit depth : 8 bits
Scan type : Progressive
Bits/(Pixel*Frame) : 0.082
Stream size : 7.53 GiB (96%)
Color range : Limited
Color primaries : BT.709
Transfer characteristics : BT.709
Matrix coefficients : BT.709
Codec configuration box : avcC

Audio
ID : 2
Format : AAC LC
Format/Info : Watch AEW 
Codec ID : mp4a-40-2
Duration : 3 h 31 min
Duration_LastFrame : -21 ms
Bit rate mode : Constant
Bit rate : 192 kb/s
Channel(s) : 2 channels
Channel layout : L R
Sampling rate : 48.0 kHz
Frame rate : 46.875 FPS (1024 SPF)
Compression mode : Lossy
Stream size : 287 MiB (4%)
Language : English
Default : Yes
Alternate group : 1

 

 

Watch online

 

Server 1

 

 

watch now

 

 

Server 2

 

 

watch now

 

 

 

Watch AEW Revolution 2020 1080p PPV

 

 

Uploaded By Site DX-TV.com

 

 

DDL.to

https://shrt10.com/8RFOyXuCy
https://shrt10.com/0Uk4ibrq
https://shrt10.com/t9AEh9U
https://shrt10.com/h33ux5O
https://shrt10.com/4l6Yy9k16

 

rockfile.co

https://shrt10.com/1DeZV
https://shrt10.com/S4lYAj41
https://shrt10.com/t30qTaX
https://shrt10.com/Q94I0KKfK
https://shrt10.com/p299n

 

 

Download with premium account Links 

 

 

Keep2Share

 

 

alfafile.net

https://shrt10.com/ePvkZMT
https://shrt10.com/y4HQ7
https://shrt10.com/GxI3tnn
https://shrt10.com/BBbs6s
https://shrt10.com/kL3qrV

 

nitroflare.com

 

 

rapidgator.net

 

 

uploadgig.com

 

 

 

dx-tv.com

 

Leave a Reply

Your email address will not be published. Required fields are marked *

This site uses Akismet to reduce spam. Learn how your comment data is processed.

%d bloggers like this: