AEW Revolution 2020 720p PPV Full Show

Watch AEW Revolution 2020 720p PPV HEEL DX-TV

AEW

 

AEW Revolution 2020

 

 

AEW Revolution 2020 720p PPV Full Show

 

Complete name : AEW.Revolution.2020.PPV.WEB.h264-HEEL.mp4
Format : MPEG-4
Format profile : Base Media
Codec ID : isom
File size : 2.87 GiB
Duration : 3 h 32 min
Overall bit rate mode : Variable
Overall bit rate : 1 934 kb/s
Writing application : Lavf58.32.104

Video
ID : 1
Format : AVC
Format/Info : AEW
Codec ID : avc1
Codec ID/Info : AEW
Duration : 3 h 32 min
Bit rate mode : Constant
Bit rate : 1 800 kb/s
Width : 848 pixels
Height : 480 pixels
Display aspect ratio : 16:9
Frame rate mode : Constant
Frame rate : 29.970 (30000/1001) FPS
Color space : YUV
Chroma subsampling : 4:2:0
Bit depth : 8 bits
Scan type : Progressive
Bits/(Pixel*Frame) : 0.148
Stream size : 2.67 GiB (93%)
Codec configuration box : avcC

Audio
ID : 2
Format : AAC LC
Format/Info : AEW
Codec ID : mp4a-40-2
Duration : 3 h 32 min
Bit rate mode : Variable
Bit rate : 126 kb/s
Maximum bit rate : 129 kb/s
Channel(s) : 2 channels
Channel layout : L R
Sampling rate : 44.1 kHz
Frame rate : 43.066 FPS (1024 SPF)
Compression mode : Lossy
Stream size : 191 MiB (6%)
Default : Yes
Alternate group : 1

 

 

Watch online

 

 

Server 1

 

 

 

 

watch now

 

 

 

 

Server 2

 

 

 

watch now

 

 

 

AEW Revolution 2020 720p PPV Full Show

 

 

Uploaded By Site DX-TV.com

 

 

DDL.to

https://shrt10.com/tKsqC
https://shrt10.com/aYnnq
https://shrt10.com/bdQH1bG
https://shrt10.com/u3Eqm0Y

 

rockfile.co

https://shrt10.com/tKsqC
https://shrt10.com/aYnnq
https://shrt10.com/bdQH1bG
https://shrt10.com/u3Eqm0Y

 

 

Download with premium account Links 

 

 

Keep2Share

 

 

alfafile.net

 

 

nitroflare.com

 

 

rapidgator.net

 

 

uploadgig.com

 

 

dx-tv.com

 

Leave a Reply

Your email address will not be published. Required fields are marked *

This site uses Akismet to reduce spam. Learn how your comment data is processed.

%d bloggers like this: