VxS Makaveli 30 Sept 2021 Full Show Replay

VxS Makaveli 30 Sept 2021 720p Full Show Replay DX-TV

VxS Makaveli

 VxS Makaveli

 

 

 

Download Links with premium High Speed
 


Dopapk

 

 

Show Links

 

 

https://shrt10.com/kEDB8IB8
https://shrt10.com/LmEmxMZ

 

 

 

 

 

Nitroflare

 

 

Show Links

 

 

https://shrt10.com/B7rBH
https://shrt10.com/HqHRFaeno

 

 

 

 

Rapidgator

 

 

Show Links

 

 

https://shrt10.com/9OQD8E
https://shrt10.com/VkdjtG

 

 

 

 

 

Uploaded
 

 

Show Links

 

 

https://shrt10.com/1coyC
https://shrt10.com/PiJydV

 

 

 

 

 

 

 

Watch online

 

Server 1

 

 

 

 

watch now

 

 

 

 

Server-2

 

 

 

 

VxS Makaveli

 

 

 

|Server-3

 

 

 

 

watch now

 

 

Uploaded By Site DX-TV.com

 

 

Open Info Show

 

 

Complete name : VxS Makaveli 30 Sept 2021 720p WEB By DX-TV.com.mp4
Format : MPEG-4
Format profile : Base Media
File size : 2.29 GiB
Duration : 2 h 33 min
Overall bit rate mode : Variable
Overall bit rate : 2 131 kb/s

VxS Makaveli

Video
ID : 1
Format : AVC
Duration : 2 h 33 min
Bit rate mode : Variable
Bit rate : 1 916 kb/s
Maximum bit rate : 6 648 kb/s
Width : 1 280 pixels
Height : 720 pixels
Display aspect ratio : 16:9
Frame rate mode : Variable
Frame rate : 24.677 FPS
Minimum frame rate : 7.054 FPS
Maximum frame rate : 30.010 FPS
Original frame rate : 30.000 FPS
Color space : YUV
Chroma subsampling : 4:2:0
Bit depth : 8 bits
Scan type : Progressive
Bits/(Pixel*Frame) : 0.084
Stream size : 2.06 GiB (90%)
Codec configuration box : avcC

VxS Makaveli

Audio
ID : 2
Format : AAC LC
Codec ID : mp4a-40-2
Duration : 2 h 33 min
Bit rate mode : Variable
Bit rate : 210 kb/s
Maximum bit rate : 212 kb/s
Channel(s) : 2 channels
Channel layout : L R
Sampling rate : 44.1 kHz
Frame rate : 43.066 FPS (1024 SPF)
Compression mode : Lossy
Stream size : 230 MiB (10%)
Default : Yes
Alternate group : 1

Complete name : VxS Makaveli 30 Sept 2021 480p WEB By DX-TV.com.mp4
Format : MPEG-4
Format profile : Base Media
Codec ID : isom
File size : 1.30 GiB
Duration : 2 h 33 min
Overall bit rate mode : Variable
Overall bit rate : 1 210 kb/s

Video
ID : 1
Format : AVC
Codec ID/Info : Advanced Video
Duration : 2 h 33 min
Bit rate mode : Variable
Bit rate : 1 073 kb/s
Maximum bit rate : 3 690 kb/s
Width : 852 pixels
Height : 480 pixels
Display aspect ratio : 16:9
Frame rate mode : Variable
Frame rate : 24.677 FPS
Minimum frame rate : 7.054 FPS
Maximum frame rate : 30.010 FPS
Original frame rate : 30.000 FPS
Color space : YUV
Chroma subsampling : 4:2:0
Bit depth : 8 bits
Scan type : Progressive
Bits/(Pixel*Frame) : 0.106
Stream size : 1.15 GiB (89%)
Codec configuration box : avcC

VxS Makaveli

Audio
ID : 2
Format : AAC LC
Codec ID : mp4a-40-2
Duration : 2 h 33 min
Bit rate mode : Constant
Bit rate : 132 kb/s
Channel(s) : 2 channels
Channel layout : L R
Sampling rate : 44.1 kHz
Frame rate : 43.066 FPS (1024 SPF)
Compression mode : Lossy
Stream size : 144 MiB (11%)
Default : Yes
Alternate group : 1

 

 

https://dx-tv.com/

 

 

 

 

 

Leave a Reply

Your email address will not be published. Required fields are marked *

This site uses Akismet to reduce spam. Learn how your comment data is processed.