UFC on ESPN 8 Free 720p 16 May 2020 Prelims

Watch UFC on ESPN 8 720p Prelims Free Full Show DX-TV

 

UFC free

 UFC on ESPN 8


 

 

UFC on ESPN 8 Free 720p 16 May 2020 Prelims

 

 

 

Complete name : UFC.on.ESPN.8.Prelims.720p.WEB-DL.By DX-TV.com.mp4
Format : MPEG-4
Format profile : Base Media
Codec ID : isom
File size : 5.76 GiB
Duration : 2 h 59 min
bit rate mode : UFC free
Overall bit rate : 4 583 kb/s
Writing application : UFC free

Video
ID : 1
Format : AVC
Codec ID : avc1
Codec ID/Info : UFC free
Duration : 2 h 59 min
Bit rate mode : Variable
Bit rate : 4 441 kb/s
Maximum bit rate : 4 809 kb/s
Width : 1 280 pixels
Height : 720 pixels
Display aspect ratio : 16:9
Frame rate mode : Variable
Frame rate : 30.000 FPS
Standard : UFC free
Color space : YUV
Chroma subsampling : 4:2:0
Bit depth : 8 bits
Scan type : Progressive
Bits/(Pixel*Frame) : 0.161
Stream size : 5.58 GiB (97%)
Color primaries : BT.709
Transfer : UFC free
Matrix coefficients : BT.709
Codec configuration box : avcC

Audio
ID : 2
Format : AAC LC
Format/Info : UFC free
Codec ID : mp4a-40-2
Duration : 2 h 59 min
Bit rate mode : Constant
Bit rate : 132 kb/s
Channel(s) : 2 channels
Channel layout : L R
Sampling rate : 48.0 kHz
Frame rate : 46.875 FPS (1024 SPF)
Compression mode : Lossy
Stream size : 170 MiB (3%)
Default : Yes
Alternate group : UFC free

 

 

 

Watch online

 

 

Server 1

 

 

 

 

watch now

 

 

 

 

Server 2

 

 

 

watch now

 

 

 

UFC on ESPN 8 Free 720p 16 May 2020 Prelims

 

 

Uploaded By Site DX-TV.com

 

 

 

Download with premium account Links 

 

 

Keep2Share

 

 

nitroflare.com

 

 

rapidgator.net

 

 

uploadgig.com

 

 

 

dx-tv.com

 

urlfree.net

Leave a Reply

Your email address will not be published. Required fields are marked *

This site uses Akismet to reduce spam. Learn how your comment data is processed.

%d bloggers like this: