UFC on ESPN 8 1080p 16 May 2020 Prelims

Watch UFC on ESPN 8 1080p Prelims Free Full Show DX-TV

 

UFC free

 UFC on ESPN 8
 

UFC on ESPN 8 1080p 16 May 2020 Prelims

 

 

Complete name : UFC.on.ESPN.8.Prelims.1080p.WEB-DL.By DX-TV.com.mp4
Format : MPEG-4
Format profile : Base Media
Codec ID : isom
File size : 7.47 GiB
Duration : 2 h 59 min
bit rate mode : Variable
Overall bit rate : 5 945 kb/s
Writing application : UFC free

Video
ID : 1
Format : AVC
Codec ID/Info : UFC free
Duration : 2 h 59 min
Bit rate mode : Variable
Bit rate : 5 803 kb/s
Maximum bit rate : 8 864 kb/s
Width : 1 920 pixels
Height : 1 080 pixels
Display aspect ratio : 16:9
Frame rate mode : UFC free
Frame rate : 30.000 FPS
Color space : YUV
Chroma   : 4:2:0
Bit depth : 8 bits
Scan type : UFC free
Bits/(Pixel*Frame) : 0.093
Stream size : 7.29 GiB (98%)

Audio
ID : 2
Format : AAC LC
Format/Info : UFC free
Codec ID : mp4a-40-2
Duration : 2 h 59 min
Bit rate mode : Variable
Bit rate : 132 kb/s
Maximum bit rate : 144 kb/s
Channel(s) : 2 channels
Channel layout : L R
Sampling rate : 48.0 kHz
Frame rate : 46.875 FPS (1024 SPF)
Compression mode : Lossy
Stream size : 170 MiB (2%)
Default : Yes
Alternate group : UFC free

 

 

 

Watch online

 

 

Server 1

 

 

 

 

watch now

 

 

 

 

Server 2

 

 

 

watch now

 

 

 

UFC on ESPN 8 1080p 16 May 2020 Prelims

 

 

Uploaded By Site DX-TV.com

 

 

 

Download with premium account Links 

 

 

Keep2Share

 

 

nitroflare.com

 

 

rapidgator.net

 

 

uploadgig.com

 

 

 

dx-tv.com

 

urlfree.net

Leave a Reply

Your email address will not be published. Required fields are marked *

This site uses Akismet to reduce spam. Learn how your comment data is processed.