UFC on ESPN 19 Hermansson vs Vettori 720p /1080p DX-TV

UFC on ESPN 19 Hermansson vs Vettori HDTV Star /720p /1080p DX-TV

UFC on ESPN 19 Hermansson vs Vettori

 

 UFC on ESPN 19 Hermansson vs Vettori

 

[su_expand more_text=”Show More Info” less_text=”Close all Info” height=”80″ text_color=”#000000″ link_color=”#e25f8b” link_style=”button” more_icon=”icon: arrow-down” less_icon=”icon: arrow-up”]
Complete name : UFC.on.ESPN.19.Hermansson.vs.Vettori.HDTV.x264-Star.mp4
Format : MPEG-4
Format profile : Base Media
Codec ID : mp42
File size : 1.61 GiB
Duration : 2 h 40 min
Overall bit rate : 1 438 kb/s

Video
ID : 1
Format : AVC
Duration : 2 h 40 min
Bit rate : 1 300 kb/s
Width : 720 pixels
Height : 480 pixels
aspect ratio : 16:9
Frame rate mode : Constant
Frame rate : 29.970 FPS
Standard : NTSC
Color space : YUV
Chroma subsampling : 4:2:0
Bit depth : 8 bits
Scan type : Progressive
Bits/(Pixel*Frame) : 0.126
Stream size : 1.46 GiB (91%)
Color range : Limited
Color primaries : BT.601 NTSC
Transfer characteristics : BT.709
Matrix coefficients : BT.601
Codec configuration box : avc

UFC on ESPN 19 Hermansson vs Vettori

Audio
ID : 2
Format : AAC LC
Format/Info : Advanced Audio
Codec ID : mp4a-40-2
Duration : 2 h 40 min
Bit rate mode : Constant
Bit rate : 128 kb/s
Channel(s) : 2 channels
Channel layout : L R
Sampling rate : 48.0 kHz
Frame rate : 46.875 FPS
Compression mode : Lossy
Stream size : 147 MiB
Title : Stereo
Default : Yes
Alternate group : 1

Complete name : UFC.on.ESPN.19.Hermansson.vs.Vettori.720p.HDTV.x264-Star.mkv
Format : Matroska
Format version : Version 4
File size : 4.64 GiB
Duration : 2 h 40 min
Overall bit rate : 4 137 kb/s

 on ESPN 19 Hermansson vs Vettori

Video
ID : 1
Format : AVC
Duration : 2 h 40 min
Bit rate : 4 000 kb/s
Width : 1 280 pixels
Height : 720 pixels
Display aspect ratio : 16:9
Frame rate mode : Constant
Frame rate : 29.970 FPS
Color space : YUV
Chroma subsampling : 4:2:0
Bit depth : 8 bits
Scan type : Progressive
Bits/(Pixel*Frame) : 0.145
Stream size : 4.40 GiB (95%)
Forced : No
Color range : Limited
Color primaries : BT.709
Transfer characteristics : BT.709
Matrix coefficients : BT.709

Audio
ID : 2
Format : AC-3
Format/Info : Audio Coding 3
Commercial name : Dolby Digital
Codec ID : A_AC3
Duration : 2 h 40 min
Bit rate mode : Constant
Bit rate : 128 kb/s
Channel(s) : 2 channels
Channel layout : L R
Sampling rate : 48.0 kHz
Frame rate : 31.250 FPS
Compression mode : Lossy
Delay relative to video : -5 ms
Stream size : 147 MiB (3%)
Title : Stereo
Service kind : Complete Main
Default : Yes
Forced : No

UFC on ESPN 19 Hermansson vs Vettori

Complete name : UFC.on.ESPN.19.Hermansson.vs.Vettori.1080p.HDTV.x264-Star.mkv
Format : Matroska
Format version : Version 4
File size : 8.00 GiB
Duration : 2 h 40 min
Overall bit rate : 7 139 kb/s

Video
ID : 1
Format : AVC
Duration : 2 h 40 min
Bit rate : 7 000 kb/s
Width : 1 920 pixels
Height : 1 080 pixels
Display aspect ratio : 16:9
Frame rate mode : Constant
Frame rate : 29.970 (30000/1001) FPS
Color space : YUV
Chroma subsampling : 4:2:0
Bit depth : 8 bits
Scan type : Progressive
Bits/(Pixel*Frame) : 0.113
Stream size : 7.70 GiB (96%)
Forced : No
Color range : Limited
Color primaries : BT.709
Transfer characteristics : BT.709
Matrix coefficients : BT.709

    Hermansson vs Vettori

Audio
ID : 2
Format : AC-3
Format/Info : Audio Coding 3
Commercial name : Dolby Digital
Codec ID : A_AC3
Duration : 2 h 40 min
Bit rate mode : Constant
Bit rate : 128 kb/s
Channel(s) : 2 channels
Channel layout : L R
Sampling rate : 48.0 kHz
Frame rate : 31.250 FPS
Compression mode : Lossy
Delay relative to video : -5 ms
Stream size : 147 MiB (2%)
Title : Stereo
Service kind : Complete Main
Default : Yes
Forced : No

UFC on ESPN 19  

 

[/su_expand]

 

 

Watch online

 

Server 1

 

 

 

 

UFC on ESPN 19 Hermansson vs Vettori

 

 

 

 

Server-2

 

 

 

 

watch now

 

 

 

 

Uploaded By Site DX-TV.com

UFC on ESPN 19 Hermansson vs Vettori

Download Links with premium High Speed   

 

 

 

 

dropapk.to

http://shrt10.com/dN1I3iQz
http://shrt10.com/DXsKGUn

https://dropapk.to/6svbyzew846s               1080p

 

nitroflare.com

http://shrt10.com/jc4y2OZM
http://shrt10.com/AKNPnvB

http://shrt10.com/DL2eob                       1080p

 

rapidgator.net

http://shrt10.com/wQzkxist
http://shrt10.com/t73WJE

http://shrt10.com/oMXfNrDSh                 1080p

 

uploaded.net

http://shrt10.com/WJ35va4yq
http://shrt10.com/zAWAc

 

 

uploadgig.com

http://shrt10.com/n6lpaVIKB
http://shrt10.com/SZjjB3B

 

 

 

https://dx-tv.com/watch-wwe-mae-young-classic-s02e03-web-heel-720p/

Leave a Reply

Your email address will not be published. Required fields are marked *

This site uses Akismet to reduce spam. Learn how your comment data is processed.