Free WWE NXT TakeOver WarGames 2020 12 06 DX-TV

WWE NXT TakeOver WarGames 2020 12 06 Free DX-TV

Free WWE NXT TakeOver WarGames 2020

 

 WWE NXT TakeOver WarGames 2020

 

[su_expand more_text=”Show More Info” less_text=”Close all Info” height=”50″ text_color=”#000000″ link_color=”#e25f8b” link_style=”button” more_icon=”icon: arrow-down” less_icon=”icon: arrow-up”]
Complete name : WWE.NXT.TakeOver.WarGames.2020.WEB.h264-HEEL.mp4
Format : MPEG-4
Format profile : Base Media
Codec ID : isom
File size : 2.15 GiB
Duration : 3 h 3 min
Overall bit rate mode : Variable
Overall bit rate : 1 676 kb/s
Writing application : Lavf58.32.104

Video
ID : 1
Format : AVC
Duration : 3 h 3 min
Bit rate mode : Variable
Bit rate : 1 543 kb/s
Maximum bit rate : 1 663 kb/s
Width : 896 pixels
Height : 504 pixels
Display aspect ratio : 16:9
Frame rate mode : Variable
Frame rate : 30.000 FPS
Standard : NTSC
Color space : YUV
Chroma subsampling : 4:2:0
Bit depth : 8 bits
Scan type : Progressive
Bits/(Pixel*Frame) : 0.114
Stream size : 1.98 GiB (92%)
Color range : Limited
Color primaries : BT.709
Transfer characteristics : BT.709
Matrix coefficients : BT.709
Codec configuration box : avc

Free WWE NXT TakeOver WarGames 2020

Audio
ID : 2
Format : AAC LC
Format/Info : Advanced Audio
Codec ID : mp4a-40-2
Duration : 3 h 3 min
Bit rate mode : Variable
Bit rate : 125 kb/s
Maximum bit rate : 132 kb/s
Channel(s) : 2 channels
Channel layout : L R
Sampling rate : 48.0 kHz
Frame rate : 46.875 FPS (1024 SPF)
Compression mode : Lossy
Stream size : 165 MiB (7%)
Default : Yes
Alternate group : 1

Text #1
ID : 1-CC1
Format : EIA-608
Muxing mode : SCTE 128 / DTVCC Transport
Muxing mode, more info : Muxed in Video #1
Duration : 3 h 3 min
Bit rate mode : Constant
Stream size : 0.00 Byte (0%)
CaptionServiceName : CC1

Text #2
ID : 1-CC3
Format : EIA-608
Muxing mode : SCTE 128 / DTVCC Transport
Muxing mode, more info : Muxed in Video #1
Duration : 3 h 3 min
Bit rate mode : Constant
Stream size : 0.00 Byte (0%)
CaptionServiceName : CC3

Free WWE NXT TakeOver WarGames 2020

Text #3
ID : 1-1
Format : EIA-708
Muxing mode : SCTE 128 / DTVCC Transport
Muxing mode, more info : Muxed in Video #1
Duration : 3 h 3 min
Bit rate mode : Constant
Stream size : 0.00 Byte (0%)

Text #4
ID : 1-2
Format : EIA-708
Muxing mode : SCTE 128 / DTVCC Transport
Muxing mode, more info : Muxed in Video #1
Duration : 3 h 3 min
Bit rate mode : Constant
Stream size : 0.00 Byte (0%)

Free WWE NXT TakeOver WarGames 2020

Complete name :WWE.NXT.TakeOver.WarGames.2020.720p.WEB.h264-HEEL.mp4
Format : MPEG-4
Format profile : Base Media
Codec ID : isom
File size : 5.33 GiB
Duration : 3 h 3 min
Overall bit rate mode : Variable
Overall bit rate : 4 159 kb/s
Writing application : Lavf58.32.104

Video
ID : 1
Format : AVC
Duration : 3 h 3 min
Bit rate : 4 022 kb/s
Width : 1 280 pixels
Height : 720 pixels
Display aspect ratio : 16:9
Frame rate mode : Variable
Frame rate : 30.000 FPS
Color space : YUV
Chroma subsampling : 4:2:0
Bit depth : 8 bits
Scan type : Progressive
Bits/(Pixel*Frame) : 0.145
Stream size : 5.15 GiB (97%)
Codec configuration box : avc

 NXT TakeOver WarGames 2020

Audio
ID : 2
Format : AAC LC
Format/Info : Advanced Audio
Codec ID : mp4a-40-2
Duration : 3 h 3 min
Bit rate mode : Variable
Bit rate : 125 kb/s
Maximum bit rate : 137 kb/s
Channel(s) : 2 channels
Channel layout : L R
Sampling rate : 48.0 kHz
Frame rate : 46.875 FPS (1024 SPF)
Compression mode : Lossy
Stream size : 165 MiB (3%)
Default : Yes
Alternate group : 1

Text #1
ID : 1-CC1
Format : EIA-608
Muxing mode : SCTE 128 / DTVCC Transport
Muxing mode, more info : Muxed in Video #1
Duration : 3 h 3 min
Bit rate mode : Constant
Stream size : 0.00 Byte (0%)
CaptionServiceName : CC1

 NXT TakeOver WarGames 2020

Text #2
ID : 1-CC3
Format : EIA-608
Muxing mode : SCTE 128 / DTVCC Transport
Muxing mode, more info : Muxed in Video #1
Duration : 3 h 3 min
Bit rate mode : Constant
Stream size : 0.00 Byte (0%)
CaptionServiceName : CC3

 NXT TakeOver WarGames  

Text #3
ID : 1-1
Format : EIA-708
Muxing mode : SCTE 128 / DTVCC Transport
Muxing mode, more info : Muxed in Video #1
Duration : 3 h 3 min
Bit rate mode : Constant
Stream size : 0.00 Byte (0%)

Text #4
ID : 1-2
Format : EIA-708
Muxing mode : SCTE 128 / DTVCC Transport
Muxing mode, more info : Muxed in Video #1
Duration : 3 h 3 min
Bit rate mode : Constant
Stream size : 0.00 Byte (0%)

 

 

[/su_expand]

 

 

Watch online

 

Server 1

 

 

 

 

Free WWE NXT TakeOver WarGames 2020

 

 

 

 

Server-2

 

 

 

 

watch now

 

 

 

 

Uploaded By Site DX-TV.com

 NXT TakeOver WarGames 2020

 

Download Links with premium High Speed   

 

 

 

 

dropapk.to

http://shrt10.com/36nkdciGk
http://shrt10.com/DuULntmdS

 

 

nitroflare.com

http://shrt10.com/KfIybAip
http://shrt10.com/oniNj

 

 

rapidgator.net

http://shrt10.com/XJMNCiP
http://shrt10.com/D1U6kmGdO

 

 

uploaded.net

 

 

 

uploadgig.com

http://shrt10.com/KUVpw0eB
http://shrt10.com/pphoTG5

 

 

 

 

https://dx-tv.com/free-ufc-fight-night-184-smith-vs-clark-720p-1080p-dx-tv/

Leave a Reply

Your email address will not be published. Required fields are marked *

This site uses Akismet to reduce spam. Learn how your comment data is processed.