UFC Fight Night Ortega vs The Zombie Full Show

Watch UFC Fight Night Ortega vs The Zombie Full Show DX-TV

 

UFC Fight Night Ortega vs The Zombie

 

 UFC Fight Night Ortega vs The Zombie
 


 

 

UFC Fight Night Ortega vs The Zombie Full Show

 

 

Main Card

Brian Ortega vs. Chan Sung Jung
Ciryl Gane vs. Ante Delija 
Jéssica Andrade vs. Katlyn Chookagian
Modestas Bukauskas vs. Jimmy Crute
Thomas Almeida vs. Jonathan Martinez

 

UFC Fight Night Ortega vs The Zombie

Chan Sung Jung well know as (Korean Zombie) in mma hold professional record 16 wins out 21 bouts.

The fight between Ortega and Korean Zombie schedule last year.

at UFC on ESPN+ 23 fight card ,but Ortega pulled out of the fight due to knee injury.  Fight Night 180 Live Stream

this week both of these fights back in action .

and the fight is confirmed held behind close doors in UAE.

The fight tv schedule released, the pay-per-view broadcast live on ESPN and ESPN+ channel.

Details regarding to Ortega Korean Zombie stream tv broadcasters based on the channels .

that hold rights to show coverage of pay-per-view in their territories.

TV3 provide coverage in Baltic countries, recently signed tv rights deal with UFC

 Fight Night Ortega vs The Zombie

 

Complete name : UFC.Fight.Night.Ortega.vs.The.Korean.Zombie.WEB.h264-DaShield.mp4
Format : MPEG-4
Format profile : Base Media
Codec ID : isom
File size : 1.89 GiB
Duration : 2 h 38 min
Overall bit rate mode : Variable
Overall bit rate : 1 708 kb/s
Writing application : Lavf58.45.100

UFC Fight Night Ortega vs The Zombie

Video
ID : 1
Format : AVC
Duration : 2 h 38 min
Bit rate : 1 567 kb/s
Width : 896 pixels
Height : 504 pixels
Display aspect ratio : 16:9
Frame rate mode : Variable
Frame rate : 30.000 FPS
Color space : YUV
Chroma subsampling : 4:2:0
Bit depth : 8 bits
Scan type : Progressive
Bits/(Pixel*Frame) : 0.116
Stream size : 1.73 GiB (92%)

 Fight Night Ortega vs The Zombie

Audio
ID : 2
Format : AAC LC
Format/Info : Advanced Audio
Codec ID : mp4a-40-2
Duration : 2 h 38 min
Bit rate mode : Variable
Bit rate : 132 kb/s
Maximum bit rate : 145 kb/s
Channel(s) : 2 channels
Channel layout : L R
Sampling rate : 48.0 kHz
Frame rate : 46.875 FPS
Compression mode : Lossy
Stream size : 149 MiB (8%)
Default : Yes
Alternate group : 1

 

 

 

UFC Fight Night Ortega vs The Zombie Full Show

 

 

Watch online

 

 

Server 1

 

 

 

 

UFC Fight Night Ortega vs The Zombie

 

 

 

 

Server-2

 

 

 

watch now

 

 

 

 

Server-3

 

 

 

UFC Fight Night Ortega vs The Zombie

 

 

 

 

Uploaded By Site DX-TV.com

 

 

 

 

Download Free Links with normal and high Speed [ more 14 hosts ]  

 

 

 

 

http://shrt10.com/gUa9zeKH
http://shrt10.com/exGj8V
http://shrt10.com/VQRKJcD
http://shrt10.com/OWpRPOF
http://shrt10.com/mjo5p
http://shrt10.com/Q4F3q
http://shrt10.com/d9kxv
http://shrt10.com/Z7veXpJDJ
http://shrt10.com/JlLnPJ
http://shrt10.com/joLJ9PJQ4
http://shrt10.com/DrqcPjqFy
http://shrt10.com/SrHgxDA

 

 

 

Download Links with premium High Speed   

 

 

 

dropapk.to

 

 

 

nitroflare.com

 

 

 

rapidgator.net

 

 

 

uploaded.net

 

 

 

uploadgig.com

 

 

 

 

 

dx-tv.com

 

urlfree.net

Leave a Reply

Your email address will not be published. Required fields are marked *

This site uses Akismet to reduce spam. Learn how your comment data is processed.