Download Free UFC Fight Night 180 Prelims 1080p Full Show

Free UFC Fight Night 180 Prelims 1080p Full ShowDX-TV

 

Free UFC Fight Night 180

 

 Free UFC Fight Night 180

 

Download Free UFC Fight Night 180 Prelims 1080p Full Show

 

 

 

 

Complete name : UFC.Fight.Night.181.Prelims.1080p.WEB.mp4
Format : MPEG-4
Format profile : Base Media
Codec ID : isom
File size : 8.72 GiB
Duration : 3 h 30 min
Overall bit rate mode : Variable
Overall bit rate : 5 929 kb/s
Writing application : Lavf58.12.100

Free UFC Fight Night 180

Video
ID : 2
Format : AVC
Duration : 3 h 30 min
Bit rate mode : Variable
Bit rate : 5 787 kb/s
Maximum bit rate : 8 864 kb/s
Width : 1 920 pixels
Height : 1 080 pixels
Display aspect ratio : 16:9
Frame rate mode : Variable
Frame rate : 30.000 FPS
Color space : YUV
Chroma subsampling : 4:2:0
Bit depth : 8 bits
Scan type : Progressive
Bits/(Pixel*Frame) : 0.093
Stream size : 8.51 GiB (98%)
Codec configuration box : avcC

Free UFC Fight Night 180

Audio
ID : 3
Format : AAC LC
Format/Info : Advanced Audio
Codec ID : mp4a-40-2
Duration : 3 h 30 min
Bit rate mode : Variable
Bit rate : 132 kb/s
Maximum bit rate : 140 kb/s
Channel(s) : 2 channels
Channel layout : L R
Sampling rate : 48.0 kHz
Frame rate : 46.875 FPS (1024 SPF)
Compression mode : Lossy
Stream size : 198 MiB (2%)
Default : Yes
Alternate group : 1

Free UFC Fight Night 180

Chan Sung Jung well know as (Korean Zombie) in mma hold professional record 16 wins out 21 bouts.

The fight between Ortega and Korean Zombie schedule last year.

at UFC on ESPN+ 23 fight card ,but Ortega pulled out of the fight due to knee injury.  Fight Night 180 Live Stream

this week both of these fights back in action .

and the fight is confirmed held behind close doors in UAE.

The fight tv schedule released, the pay-per-view broadcast live on ESPN and ESPN+ channel.

Details regarding to Ortega Korean Zombie stream tv broadcasters based on the channels .

that hold rights to show coverage of pay-per-view in their territories.

TV3 provide coverage in Baltic countries, recently signed tv rights deal with UFC

 

Download Free UFC Fight Night 180 Prelims 1080p Full Show

 

 

 

 

Watch online

 

 

 

 

Server 1

 

 

watch now

 

 

 

 

Server-2

 

 

 

watch now

 

 

 

 

Server-3

 

 

 

Free UFC Fight Night 180

 

 

 

 

Uploaded By Site DX-TV.com

 

 

Free UFC Fight Night 180

 

Download Links with premium High Speed   

 

 

 

 

dropapk.to

 

 

 

nitroflare.com

 

 

 

rapidgator.net

 

 

 

uploadgig.com

 

 

 

 

 

dx-tv.com

 

urlfree.net

Leave a Reply

Your email address will not be published. Required fields are marked *

This site uses Akismet to reduce spam. Learn how your comment data is processed.