UFC Fight Night 175 Prelims 720p Full Show Online

Watch UFC Fight Night 175 Prelims 720p Full Show Online DX-TV

 

UFC Fight Night 175 Prelims 720p

 

 UFC Fight Night 175 720p Prelims

 

 Fight Night 175 Prelims 720p Full Show Online

 

 

 

[su_expand more_text=”Show More Info” less_text=”Close all Info” height=”30″ text_color=”#000000″ link_color=”#e25f8b” link_style=”button” more_icon=”icon: arrow-down” less_icon=”icon: arrow-up”]

General
Complete name : C:\DX\WWE\UFC.Fight.Night.175.Prelims.720p.WWB – By DX-TV.COM.mp4
Format : MPEG-4
Format profile : Base Media
Codec ID : isom (isom/iso2/avc1/mp41)
File size : 4.01 GiB
Duration : 2 h 59 min
Overall bit rate mode : Variable
Overall bit rate : 3 194 kb/s
Writing application : Lavf58.12.100

Video
ID : 1
Format : AVC
Codec ID : avc1
Codec ID/Info : Advanced 
Duration : 2 h 59 min
Bit rate mode : Variable UFC Fight Night 175 Prelims 720p
Bit rate : 3 053 kb/s
Maximum bit rate : 3 159 kb/s
Width : 1 280 pixels
Height : 720 pixels
Display aspect ratio : 16:9
Frame rate mode : Variable
Frame rate : 30.000 FPS 
Standard : NTSC
Color space : YUV
Chroma sub-sampling : 4:2:0
Bit depth : 8 bits
Scan type : Progressive
Bits/(Pixel*Frame) : 0.110
Stream size : 3.84 GiB (96%)
Color range : Limited  Fight Night 175 Prelims 720p
Color primaries : BT.709
Transfer characteristics : BT.709
Matrix coefficients : BT.709
Codec configuration box : avcC

UFC Fight Night 175 Prelims 720p

Audio
ID : 2
Format : AAC LC
Format/Info : Advanced Audio
Codec ID : mp4a-40-2
Duration : 2 h 59 min
Bit rate mode : Variable
Bit rate : 132 kb/s
Maximum bit rate : 152 kb/s
Channel(s) : 2 channels
Channel layout : L R
Sampling rate : 48.0 kHz
Frame rate : 46.875 FPS (1024 SPF)
Compression mode : Lossy
Stream size : 169 MiB (4%)
Default : Yes
Alternate group : 1

 

 

UFC Fight Night 175 Prelims 720p

Magny Adds Big Name to Resume

Neil Magny feels like a fighter who has been on the UFC roster for 20 years.

Robbie Lawler actually is a fighter who has been on the roster for nearly 20 years. 

Magny has been fighting in the UFC since 2013. Yet he’s never been able,

to break through to true contention in the welterweight division.  Fight Night 175 Prelims 720p

Lawler made his UFC debut in 2002 as a 20-year-old before becoming a Strikeforce star,

and eventually coming back to the UFC and capturing the welterweight title. 

Lawler isn’t the same fighter that he once was, but this will give Magny a chance to ,

add another impressive name to his list of vanquished foes.

That list currently includes the likes of Kelvin Gastelum, Johny Hendricks and Carlos Condit. 

UFC Fight Night 175 Prelims 720p

Fight Night Smith vs Rakic 2020 08 29

Magny is a good pressure fighter who looks to overwhelm with volume. Against a prime Lawler,

that would be a recipe for disaster, as he is adept at counter-striking. While there’s still some risk there,

Lawler has lost three straight fights and doesn’t seem to have the same quick trigger that he enjoyed in his prime. 

This fight should mostly take place on the feet, but Magny has his wrestling to fall back on.

His jab has improved throughout his career, and it could be an important tool in this fight ,

as he can build the rest of his game off it and keep the pressure on Lawler. 

Lawler still has a surprisingly good chin, so knocking him out will be challenging. However,

Magny should be able to control the flow and pace of this fight , Fight Night 175 Prelims 720p

and win it on account of his volume, combination punching and length.

Prediction: Magny via decision

 

UFC Fight Night 175 Prelims 720p Full Show Online

 

 

[/su_expand]

 

 

 

Watch online

 

 

[su_expand more_text=”Open Videos Online” less_text=”Close Videos” height=”0″ text_color=”#0859fe” link_color=”#a74a69″ link_style=”button” more_icon=”icon: play” less_icon=”icon: stop”]

 

 

Server 1

 

 

 

 

watch now

 

 

 

 

Server-2

 

 

 

watch now

 

 

 

 

Server-3

 

 

 

UFC Fight Night 175 Prelims 720p

 

 

 

 

 

[/su_expand]
 

 

Uploaded By Site DX-TV.com

 

 

 

Download Links with High Speed   

 

 

[su_expand more_text=”Open Download Links” less_text=”Close all Links” height=”0″ text_color=”#4b9a3e” link_color=”#1b3fa8″ link_style=”button” more_icon=”icon: link” less_icon=”icon: unlink”]
 

Keep2Share

 

 

 

nitroflare.com

 

 

 

rapidgator.net

 

 

 

uploadgig.com

 

 

[/su_expand]
dx-tv.com

 

urlfree.net