Free UFC Fight Night 175 Prelims Online

Watch Free UFC Fight Night 175 Prelims Online DX-TV

 

UFC Fight Night 175 Prelims Online

 

 UFC Fight Night 175 Prelims Online
 


 

 

Free UFC Fight Night 175 Prelims Online

 

 

 

[su_expand more_text=”Show More Info” less_text=”Close all Info” height=”30″ text_color=”#000000″ link_color=”#e25f8b” link_style=”button” more_icon=”icon: arrow-down” less_icon=”icon: arrow-up”]

 

Complete name : UFC.Fight.Night.175.Prelims.WEB By DX-TV.COM.mp4
Format : MPEG-4
Format profile : Base Media
Codec ID : isom
File size : 1.51 GiB
Duration : 2 h 59 min
Overall bit rate mode : Variable
Overall bit rate : 1 203 kb/s
Writing application : Lavf58.12.100

Video
ID : 1
Format : AVC
Duration : 2 h 59 min
Bit rate mode : Variable
Bit rate : 1 069 kb/s
Width : 896 pixels
Height : 504 pixels
Display aspect ratio : 16:9
Frame rate mode : Variable
Frame rate : 30.000 FPS
Standard : NTSC UFC Fight Night 175 Prelims Online
Color space : YUV
Chroma subsampling : 4:2:0
Bit depth : 8 bits
Scan type : Progressive
Bits/(Pixel*Frame) : 0.079
Stream size : 1.34 GiB (88%)
Color primaries : BT.709
Transfer characteristics : BT.709
Matrix coefficients : BT.709
Codec configuration box : avcC

Free UFC Fight Night 175 Prelims Online

Audio
ID : 2
Format : AAC LC
Format/Info : Advanced Audio
Codec ID : mp4a-40-2
Duration : 2 h 59 min
Bit rate mode : Variable
Bit rate : 132 kb/s
Maximum bit rate : 152 kb/s
Channel(s) : 2 channels
Channel layout : L R UFC Fight Night 175 Prelims Online
Sampling rate : 48.0 kHz
Frame rate : 46.875 FPS
Compression mode : Lossy
Stream size : 169 MiB (11%)
Default : Yes
Alternate group : 1

 

UFC Vegas 8 Prelims Card on ESPN/ESPN+ (6 p.m. ET):

185 lbs.: Maki Pitolo vs. Impa Kasanganay
115 lbs.: Mallory Martin vs. Hannah Cifers
185 lbs.: Alessio Di Chirico vs. Zak Cummings
145 lbs.: Alex Caceres vs. Austin Springer
115 lbs.: Polyana Viana vs. Emily Whitmire
170 lbs.: Sean Brady vs. Christian Aguilera

 

Free Live UFC Fight Night Smith vs Rakic 2020 08 29

Rakic Looks to Get Back on Track

Depending on who you ask, Rakic has no need to “get back on track” Saturday. He beat Volkan Oezdemir,

yet his official record has an “L” next to the contest. 

Yet “No Time” convinced two of the three people whose opinions on ,

the subject actually matter en route to a split decision win.  UFC Fight Night 175 Prelims Online

Regardless, the Austrian experienced a loss for the first time since October 2011,

and should be anxious to get back in the win column. If he does, it’ll be against his toughest test yet.

Smith lives up to his Lionheart moniker in the cage and matches his toughness with a broad array of strikes. 

Finishing Smith isn’t an easy task. Glover Teixeira was able to do it in the latter rounds of their fight,

but it’s important to note that Smith was winning that fight through the early rounds.

Smith is as skilled as they come in the division. 

 

UFC Fight Night Smith vs Rakic 2020 08 29

That being said, Rakic appears to be a rising star. He stays busy with volume but throws with consequential power.

His head kick knockout against Jimi Manuwa was a devastating example of how he can end a fight at any moment. 

It will take more than that to knockout Smith, but there should be concerns for ,

how much punishment Smith can take just three-and-a-half months from his loss to Teixeira.

He absorbed a lot of damage in a fight that was an absolute war. 

Returning that quickly after suffering that kind of damage is the kind of thing that could carry over into the next fight.

Under normal circumstances, Smith might be able to outlast Rakic and stun him in the championship rounds. 

Prediction: Rakic via second-round TKO

 

Free UFC Fight Night 175 Prelims Online

 

 

[/su_expand]

 

 

 

Watch online

 

 

[su_expand more_text=”Open Videos Online” less_text=”Close Videos” height=”0″ text_color=”#0859fe” link_color=”#a74a69″ link_style=”button” more_icon=”icon: play” less_icon=”icon: stop”]

 

 

Server 1

 

 

 

 

watch now

 

 

 

 

Server-2

 

 

 

watch now

 

 

 

 

Server-3

 

 

 

UFC Fight Night 175 Prelims Online

 

 

 

 

 

[/su_expand]
 

 

 

Uploaded By Site DX-TV.com

 

 

 

Download Links with High Speed   

 

 

[su_expand more_text=”Open Download Links” less_text=”Close all Links” height=”0″ text_color=”#4b9a3e” link_color=”#1b3fa8″ link_style=”button” more_icon=”icon: link” less_icon=”icon: unlink”]
 

 

Keep2Share

 

 

 

nitroflare.com

 

 

 

rapidgator.net

 

 

 

uploadgig.com

 

 

[/su_expand]
 

dx-tv.com

 

urlfree.net

Leave a Reply

Your email address will not be published. Required fields are marked *

This site uses Akismet to reduce spam. Learn how your comment data is processed.