UFC 255 Free Online Early Prelims 720p/ 1080p

Watch UFC 255 Free Online Early Prelims 720p/ 1080p DX-TV

UFC 255 Free Online

 

 UFC 255 Free Online

 

UFC 255 Free Online Early Prelims 720p/ 1080p

 

 

[su_expand more_text=”Show More Info” less_text=”Close all Info” height=”30″ text_color=”#000000″ link_color=”#e25f8b” link_style=”button” more_icon=”icon: arrow-down” less_icon=”icon: arrow-up”]

 

Complete name : UFC.255.Early.Prelims.720p.mp4
Format : MPEG-4
Format profile : Base Media
Codec ID : isom
File size : 2.24 GiB
Duration : 1 h 39 min
Overall bit rate mode : Variable
Overall bit rate : 3 211 kb/s
Writing application : Lavf58.12.100

UFC 255 Free Online

Video
ID : 1
Format : AVC
Duration : 1 h 39 min
Bit rate mode : Variable
Bit rate : 3 071 kb/s
Maximum bit rate : 3 159 kb/s
Width : 1 280 pixels
Height : 720 pixels
aspect ratio : 16:9
Frame rate mode : Variable
Frame rate : 30.000 FPS
Standard : NTSC
Color space : YUV
Chroma subsampling : 4:2:0
Bit depth : 8 bits
Scan type : Progressive
Bits/(Pixel*Frame) : 0.111
Stream size : 2.14 GiB
Color primaries : BT.709
Transfer characteristics : BT.709
Matrix coefficients : BT.709
Codec configuration box : avc

UFC 255  Online

Audio
ID : 2
Format : AAC LC
Format/Info : Advanced Audio
Codec ID : mp4a-40-2
Duration : 1 h 39 min
Bit rate mode : Constant
Bit rate : 132 kb/s
Channel(s) : 2 channels
Channel layout : L R
Sampling rate : 48.0 kHz
Frame rate : 46.875 FPS
Compression mode : Lossy
Stream size : 94.0 MiB
Default : Yes
Alternate group : 1

UFC 255 Free Online

Text
ID : 1-CC1
Format : EIA-608
Muxing mode : SCTE 128 /
Muxing mode, : Muxed in Video  
Duration : 1 h 39 min
Bit rate mode : Constant
Stream size : 0.00 Byte
Caption Service Name : CC1

UFC 255  Online

UFC 253: Fight card

Main card

  • Deiveson Figueiredo (c) vs. Alex Perez – for UFC Flyweight Championship
  • Valentina Shevchenko (c) vs. Jennifer Maia – for UFC Women’s Flyweight Championship
  • Mike Perry vs. Tim Means, Welterweight
  • Katlyn Chookagian vs. Cynthia Calvillo, Women’s Flyweight
  • Mauricio Rua vs. Paul Craig, Light Heavyweight

 255 Free Online

Preliminary card 

  • Brandon Moreno vs. Brandon Royval, Flyweight
  • Joaquin Buckley vs. Jordan Wright, Middleweight
  • Antonina Shevchenko vs. Ariane Lipski, Women’s Flyweight
  • Daniel Rodriguez vs. Nicolas Dalby, Welterweight
  • Alan Jouban vs. Jared Gooden, Welterweight
  • Kyle Daukaus vs. Dustin Stoltzfus, Middleweight
  • Louis Cosce vs. Sasha Palatnikov, Welterweight

 

UFC 255 Free Online Early Prelims 720p/ 1080p

 

 

[/su_expand]

 

 

Watch online

 

 

Server 1

 

 

 

 

 

 

 

 

Server-2

 

 

 

 

 

 

 

 

Uploaded By Site DX-TV.com

 

 255 Free Online

Download Links with premium High Speed   

 

 

 

 

dropapk.to

http://shrt10.com/PNn5bE
http://shrt10.com/RJQ44U

 

 

nitroflare.com

http://shrt10.com/wkCxAZL
http://shrt10.com/fqGNBK

 

 

rapidgator.net

http://shrt10.com/Pe7muX
http://shrt10.com/8CYpoNn

 

 

uploaded.net

http://shrt10.com/09ZJ4H
http://shrt10.com/VLzjSyvh

 

 

uploadgig.com

http://shrt10.com/Nv1jxMEf
http://shrt10.com/8TgBU

 

 

 

 

dx-tv.com

 

urlfree.net

You May Also Like

Leave a Reply

Your email address will not be published. Required fields are marked *

This site uses Akismet to reduce spam. Learn how your comment data is processed.