Watch UFC 255 Full Show Free Online Prelims/ 720p DX-TV

Watch UFC 255 Full Show Free Online Prelims/ 720p DX-TV

UFC 255 Free Online

 

 UFC 255 Free Online

 

UFC 255 Free Online

 

 

[su_expand more_text=”Show More Info” less_text=”Close all Info” height=”30″ text_color=”#000000″ link_color=”#e25f8b” link_style=”button” more_icon=”icon: arrow-down” less_icon=”icon: arrow-up”]

 

Complete name : UFC.255.Prelims.720p.mp4
Format : MPEG-4
Format profile : Base Media
Codec ID : isom
File size : 3.12 GiB
Duration : 2 h 20 min
Overall bit rate mode : Variable
Overall bit rate : 3 168 kb/s
Writing application : Lavf58.12.100

UFC 255 Free Online

Video
ID : 2
Format : AVC
Duration : 2 h 20 min
Bit rate mode : Variable
Bit rate : 3 028 kb/s
Maximum bit rate : 3 159 kb/s
Width : 1 280 pixels
Height : 720 pixels
Display aspect ratio : 16:9
Frame rate mode : Variable
Frame rate : 30.000 FPS
Minimum frame rate : 29.412 FPS
frame rate : 30.303 FPS
Standard : NTSC
Color space : YUV
Chroma subsampling : 4:2:0
Bit depth : 8 bits
Scan type : Progressive
Bits/(Pixel*Frame) : 0.110
Stream size : 2.98 GiB
Color range : Limited
Color primaries : BT.709
Transfer characteristics : BT.709
Matrix coefficients : BT.709
Codec configuration box : avc

UFC 255 Free Online

Audio
ID : 3
Format : AAC LC
Format/Info : Advanced Audio
Codec ID : mp4a-40-2
Duration : 2 h 20 min
Bit rate mode : Constant
Bit rate : 132 kb/s
Channel(s) : 2 channels
Channel layout : L R
Sampling rate : 48.0 kHz
Frame rate : 46.875 FPS
Compression mode : Lossy
Stream size : 133 MiB
Default : Yes
Alternate group : 1

UFC 255 Free Online

UFC 255 Free Online

Round 3 – Cosce with a quick takedown attempt. Palatnikov defending, and he’s grabbing the fence as he does. Referee Chris Tognoni stops the action to issue a stern warning.

Cosce again wants the takedown on the restart, but it’s not there.

Blood again streaming from Cosce’s nose. Palatnikov into a Thai clinch and grinding away with knee. They back away, and Palatnikov lands a big turning kick to the body.

Into the clinch. Cosce lands low, and Palatnikov crashes to the canvas and screams out as we take another break. He takes his time, but we carry on.

Palatnikov with a quick jab on the restart. He cracks Cosce with a huge right. Cosce is hurt. Palatnikov sees it and attacks. Cosce to the canvas and trying to cover.

Palatnikov teeing off. Cosce is turtled, but he’s not really doing anything besides covering, and this fight is over. Wild start to the night.

 

[/su_expand]

 

 

Watch online

 

 

Server 1

 

 

 

 

 

 

Server-2

 

 

 

 

 

 

 

 

Uploaded By Site DX-TV.com

Watch  UFC 255 Free Online

 

Download Links with premium High Speed   

 

 

 

 

dropapk.to

http://shrt10.com/fcs6M
http://shrt10.com/GAzYiTDP

 

 

nitroflare.com

http://shrt10.com/8jTZwePh
http://shrt10.com/XBPboZw

 

 

rapidgator.net

http://shrt10.com/Etw2e
http://shrt10.com/OxvDoii5

 

 

uploaded.net

http://shrt10.com/B4nAQ1i9

 

 

uploadgig.com

http://shrt10.com/vLw0FO4U
http://shrt10.com/RaOUVa

 

 

 

 

dx-tv.com

 

urlfree.net

You May Also Like

Leave a Reply

Your email address will not be published. Required fields are marked *

This site uses Akismet to reduce spam. Learn how your comment data is processed.