TJPW Tokyo Princess Cup 8 2021 07 31 Online Free

TJPW Tokyo Princess Cup 8 2021 07 31 Online Free Replay DX-TV

Contents show

TJPW Tokyo Princess Cup 8

 TJPW Tokyo Princess Cup 8

 

 

 

Download Links with premium High Speed


Dopapk

 

 

Show Links

 

http://shrt10.com/aa1KO

 

[collapse]

 

 

Nitroflare

 

 

Show Links

 

http://shrt10.com/Fn8fttlcP

 

[collapse]

 

 

Rapidgator

 

 

Show Links

 

http://shrt10.com/coEKz

 

[collapse]

 

 

Uploaded

 

 

Show Links

 

http://shrt10.com/21QbBbbak

 

[collapse]

 

 

Watch online

 

Server 1

 

 

 

 

TJPW Tokyo Princess Cup 8

 

 

 

 

Server-2

 

 

 

 

watch now

 

 

 

|Server-3

 

 

 

 

watch now

 

 

Uploaded By Site DX-TV.com

 

 

Show Info This Show

TJPW Tokyo Princess Cup 8

 

Complete name : 2021.07.31.TJPW.Tokyo.Princess.Cup.8.(Wrestle.Universe).mp4
Format : MPEG-4
Format profile : Base Media
Codec ID : isom
File size : 2.39 GiB
Duration : 2 h 13 min
Overall bit rate : 2 557 kb/s

Video
ID : 1
Format : AVC
Format/Info : Advanced Video
Duration : 2 h 13 min
Bit rate : 2 352 kb/s
Width : 1 280 pixels
Height : 720 pixels
Display aspect ratio : 16:9
Frame rate mode : Constant
Frame rate : 60.000 FPS
Color space : YUV
Chroma subsampling : 4:2:0
Bit depth : 8 bits
Scan type : Progressive
Bits/(Pixel*Frame) : 0.043
Stream size : 2.20 GiB (92%)
Color primaries : BT.709
Transfer characteristics : BT.709
Matrix coefficients : BT.709
Codec configuration box : avc

TJPW Tokyo Princess Cup 8

Audio
ID : 2
Format : AAC LC
Format/Info : Advanced Audio
Codec ID : mp4a-40-2
Duration : 2 h 13 min
Bit rate mode : Constant
Bit rate : 192 kb/s
Channel(s) : 2 channels
Channel layout : L R
Sampling rate : 48.0 kHz
Frame rate : 46.875 FPS (1024 SPF)
Compression mode : Lossy
Stream size : 184 MiB (8%)
Title : simple_aac_recording
Default : Yes
Alternate group : 1

TJPW Tokyo Princess Cup 8

Name of the event: TJPW 8th Tokyo Princess Cup – Tag 5
Date: 31.07.2021
Promotion: Tokyo Joshi Pro-Wrestling
Type: TV-Show
Location: Tokyo, Japan
Arena: Shinjuku FACE
Attendance: 226
Broadcast type: Live
Broadcast date: 31.07.2021
TV station/network: Wrestle Universe

TJPW Tokyo Princess Cup 8

6 Woman Tag Team Match
Kaya Toribami, Mirai Maiumi & Pom Harajuku defeated Mahiro Kiryu, Yuki Kamifuku & Moka Miyamoto.

Triple Threat Match
Hyper Misao defeated Haruna Neko and Nodoka Tenma.

6 Woman Tag Team Match
Yuki Arai, Hikari Noa & Raku defeated Marika Kobashi, Arisu Endo & Nao Kakuta.

Tokyo Princess Cup Quarter Final Match
Maki Itoh defeated Suzume.

Tokyo Princess Cup Quarter Final Match
Miu Watanabe defeated Yuki Aino.

Tokyo Princess Cup Quarter Final Match
Shoko Nakajima defeated Rika Tatsumi.

Tokyo Princess Cup Quarter Final Match
MIZUKI defeated Miyu Yamashita.

TJPW Tokyo Princess Cup 8

Complete name : 2021.07.31.TJPW.Tokyo.Princess.Cup.8.(Wrestle.Universe).mp4
Format : MPEG-4
Format profile : Base Media
Codec ID : isom
File size : 2.39 GiB
Duration : 2 h 13 min
Overall bit rate : 2 557 kb/s

Video
ID : 1
Format : AVC
Format/Info : Advanced Video
Duration : 2 h 13 min
Bit rate : 2 352 kb/s
Width : 1 280 pixels
Height : 720 pixels
Display aspect ratio : 16:9
Frame rate mode : Constant
Frame rate : 60.000 FPS
Color space : YUV
Chroma subsampling : 4:2:0
Bit depth : 8 bits
Scan type : Progressive
Bits/(Pixel*Frame) : 0.043
Stream size : 2.20 GiB (92%)
Color primaries : BT.709
Transfer characteristics : BT.709
Matrix coefficients : BT.709
Codec configuration box : avc

TJPW Tokyo Princess Cup 8

Audio
ID : 2
Format : AAC LC
Format/Info : Advanced Audio
Codec ID : mp4a-40-2
Duration : 2 h 13 min
Bit rate mode : Constant
Bit rate : 192 kb/s
Channel(s) : 2 channels
Channel layout : L R
Sampling rate : 48.0 kHz
Frame rate : 46.875 FPS (1024 SPF)
Compression mode : Lossy
Stream size : 184 MiB (8%)
Title : simple_aac_recording
Default : Yes
Alternate group : 1

TJPW Tokyo Princess Cup 8

Name of the event: TJPW 8th Tokyo Princess Cup – Tag 5
Date: 31.07.2021
Promotion: Tokyo Joshi Pro-Wrestling
Type: TV-Show
Location: Tokyo, Japan
Arena: Shinjuku FACE
Attendance: 226
Broadcast type: Live
Broadcast date: 31.07.2021
TV station/network: Wrestle Universe

TJPW Tokyo Princess Cup 8

6 Woman Tag Team Match
Kaya Toribami, Mirai Maiumi & Pom Harajuku defeated Mahiro Kiryu, Yuki Kamifuku & Moka Miyamoto.

Triple Threat Match
Hyper Misao defeated Haruna Neko and Nodoka Tenma.

6 Woman Tag Team Match
Yuki Arai, Hikari Noa & Raku defeated Marika Kobashi, Arisu Endo & Nao Kakuta.

Tokyo Princess Cup Quarter Final Match
Maki Itoh defeated Suzume.

Tokyo Princess Cup Quarter Final Match
Miu Watanabe defeated Yuki Aino.

Tokyo Princess Cup Quarter Final Match
Shoko Nakajima defeated Rika Tatsumi.

Tokyo Princess Cup Quarter Final Match
MIZUKI defeated Miyu Yamashita.

TJPW Tokyo Princess Cup 8

Complete name : 2021.07.31.TJPW.Tokyo.Princess.Cup.8.(Wrestle.Universe).mp4
Format : MPEG-4
Format profile : Base Media
Codec ID : isom
File size : 2.39 GiB
Duration : 2 h 13 min
Overall bit rate : 2 557 kb/s

Video
ID : 1
Format : AVC
Format/Info : Advanced Video
Duration : 2 h 13 min
Bit rate : 2 352 kb/s
Width : 1 280 pixels
Height : 720 pixels
Display aspect ratio : 16:9
Frame rate mode : Constant
Frame rate : 60.000 FPS
Color space : YUV
Chroma subsampling : 4:2:0
Bit depth : 8 bits
Scan type : Progressive
Bits/(Pixel*Frame) : 0.043
Stream size : 2.20 GiB (92%)
Color primaries : BT.709
Transfer characteristics : BT.709
Matrix coefficients : BT.709
Codec configuration box : avc

TJPW Tokyo Princess Cup 8

Audio
ID : 2
Format : AAC LC
Format/Info : Advanced Audio
Codec ID : mp4a-40-2
Duration : 2 h 13 min
Bit rate mode : Constant
Bit rate : 192 kb/s
Channel(s) : 2 channels
Channel layout : L R
Sampling rate : 48.0 kHz
Frame rate : 46.875 FPS (1024 SPF)
Compression mode : Lossy
Stream size : 184 MiB (8%)
Title : simple_aac_recording
Default : Yes
Alternate group : 1

TJPW Tokyo Princess Cup 8

Name of the event: TJPW 8th Tokyo Princess Cup – Tag 5
Date: 31.07.2021
Promotion: Tokyo Joshi Pro-Wrestling
Type: TV-Show
Location: Tokyo, Japan
Arena: Shinjuku FACE
Attendance: 226
Broadcast type: Live
Broadcast date: 31.07.2021
TV station/network: Wrestle Universe

TJPW Tokyo Princess Cup 8

6 Woman Tag Team Match
Kaya Toribami, Mirai Maiumi & Pom Harajuku defeated Mahiro Kiryu, Yuki Kamifuku & Moka Miyamoto.

Triple Threat Match
Hyper Misao defeated Haruna Neko and Nodoka Tenma.

6 Woman Tag Team Match
Yuki Arai, Hikari Noa & Raku defeated Marika Kobashi, Arisu Endo & Nao Kakuta.

Tokyo Princess Cup Quarter Final Match
Maki Itoh defeated Suzume.

Tokyo Princess Cup Quarter Final Match
Miu Watanabe defeated Yuki Aino.

Tokyo Princess Cup Quarter Final Match
Shoko Nakajima defeated Rika Tatsumi.

Tokyo Princess Cup Quarter Final Match
MIZUKI defeated Miyu Yamashita.

TJPW Tokyo Princess Cup 8

Complete name : 2021.07.31.TJPW.Tokyo.Princess.Cup.8.(Wrestle.Universe).mp4
Format : MPEG-4
Format profile : Base Media
Codec ID : isom
File size : 2.39 GiB
Duration : 2 h 13 min
Overall bit rate : 2 557 kb/s

Video
ID : 1
Format : AVC
Format/Info : Advanced Video
Duration : 2 h 13 min
Bit rate : 2 352 kb/s
Width : 1 280 pixels
Height : 720 pixels
Display aspect ratio : 16:9
Frame rate mode : Constant
Frame rate : 60.000 FPS
Color space : YUV
Chroma subsampling : 4:2:0
Bit depth : 8 bits
Scan type : Progressive
Bits/(Pixel*Frame) : 0.043
Stream size : 2.20 GiB (92%)
Color primaries : BT.709
Transfer characteristics : BT.709
Matrix coefficients : BT.709
Codec configuration box : avc

TJPW Tokyo Princess Cup 8

Audio
ID : 2
Format : AAC LC
Format/Info : Advanced Audio
Codec ID : mp4a-40-2
Duration : 2 h 13 min
Bit rate mode : Constant
Bit rate : 192 kb/s
Channel(s) : 2 channels
Channel layout : L R
Sampling rate : 48.0 kHz
Frame rate : 46.875 FPS (1024 SPF)
Compression mode : Lossy
Stream size : 184 MiB (8%)
Title : simple_aac_recording
Default : Yes
Alternate group : 1

TJPW Tokyo Princess Cup 8

Name of the event: TJPW 8th Tokyo Princess Cup – Tag 5
Date: 31.07.2021
Promotion: Tokyo Joshi Pro-Wrestling
Type: TV-Show
Location: Tokyo, Japan
Arena: Shinjuku FACE
Attendance: 226
Broadcast type: Live
Broadcast date: 31.07.2021
TV station/network: Wrestle Universe

TJPW Tokyo Princess Cup 8

6 Woman Tag Team Match
Kaya Toribami, Mirai Maiumi & Pom Harajuku defeated Mahiro Kiryu, Yuki Kamifuku & Moka Miyamoto.

Triple Threat Match
Hyper Misao defeated Haruna Neko and Nodoka Tenma.

6 Woman Tag Team Match
Yuki Arai, Hikari Noa & Raku defeated Marika Kobashi, Arisu Endo & Nao Kakuta.

Tokyo Princess Cup Quarter Final Match
Maki Itoh defeated Suzume.

Tokyo Princess Cup Quarter Final Match
Miu Watanabe defeated Yuki Aino.

Tokyo Princess Cup Quarter Final Match
Shoko Nakajima defeated Rika Tatsumi.

Tokyo Princess Cup Quarter Final Match
MIZUKI defeated Miyu Yamashita.

TJPW Tokyo Princess Cup 8

Complete name : 2021.07.31.TJPW.Tokyo.Princess.Cup.8.(Wrestle.Universe).mp4
Format : MPEG-4
Format profile : Base Media
Codec ID : isom
File size : 2.39 GiB
Duration : 2 h 13 min
Overall bit rate : 2 557 kb/s

Video
ID : 1
Format : AVC
Format/Info : Advanced Video
Duration : 2 h 13 min
Bit rate : 2 352 kb/s
Width : 1 280 pixels
Height : 720 pixels
Display aspect ratio : 16:9
Frame rate mode : Constant
Frame rate : 60.000 FPS
Color space : YUV
Chroma subsampling : 4:2:0
Bit depth : 8 bits
Scan type : Progressive
Bits/(Pixel*Frame) : 0.043
Stream size : 2.20 GiB (92%)
Color primaries : BT.709
Transfer characteristics : BT.709
Matrix coefficients : BT.709
Codec configuration box : avc

TJPW Tokyo Princess Cup 8

Audio
ID : 2
Format : AAC LC
Format/Info : Advanced Audio
Codec ID : mp4a-40-2
Duration : 2 h 13 min
Bit rate mode : Constant
Bit rate : 192 kb/s
Channel(s) : 2 channels
Channel layout : L R
Sampling rate : 48.0 kHz
Frame rate : 46.875 FPS (1024 SPF)
Compression mode : Lossy
Stream size : 184 MiB (8%)
Title : simple_aac_recording
Default : Yes
Alternate group : 1

TJPW Tokyo Princess Cup 8

Name of the event: TJPW 8th Tokyo Princess Cup – Tag 5
Date: 31.07.2021
Promotion: Tokyo Joshi Pro-Wrestling
Type: TV-Show
Location: Tokyo, Japan
Arena: Shinjuku FACE
Attendance: 226
Broadcast type: Live
Broadcast date: 31.07.2021
TV station/network: Wrestle Universe

TJPW Tokyo Princess Cup 8

6 Woman Tag Team Match
Kaya Toribami, Mirai Maiumi & Pom Harajuku defeated Mahiro Kiryu, Yuki Kamifuku & Moka Miyamoto.

Triple Threat Match
Hyper Misao defeated Haruna Neko and Nodoka Tenma.

6 Woman Tag Team Match
Yuki Arai, Hikari Noa & Raku defeated Marika Kobashi, Arisu Endo & Nao Kakuta.

Tokyo Princess Cup Quarter Final Match
Maki Itoh defeated Suzume.

Tokyo Princess Cup Quarter Final Match
Miu Watanabe defeated Yuki Aino.

Tokyo Princess Cup Quarter Final Match
Shoko Nakajima defeated Rika Tatsumi.

Tokyo Princess Cup Quarter Final Match
MIZUKI defeated Miyu Yamashita.

TJPW Tokyo Princess Cup 8

Complete name : 2021.07.31.TJPW.Tokyo.Princess.Cup.8.(Wrestle.Universe).mp4
Format : MPEG-4
Format profile : Base Media
Codec ID : isom
File size : 2.39 GiB
Duration : 2 h 13 min
Overall bit rate : 2 557 kb/s

Video
ID : 1
Format : AVC
Format/Info : Advanced Video
Duration : 2 h 13 min
Bit rate : 2 352 kb/s
Width : 1 280 pixels
Height : 720 pixels
Display aspect ratio : 16:9
Frame rate mode : Constant
Frame rate : 60.000 FPS
Color space : YUV
Chroma subsampling : 4:2:0
Bit depth : 8 bits
Scan type : Progressive
Bits/(Pixel*Frame) : 0.043
Stream size : 2.20 GiB (92%)
Color primaries : BT.709
Transfer characteristics : BT.709
Matrix coefficients : BT.709
Codec configuration box : avc

TJPW Tokyo Princess Cup 8

Audio
ID : 2
Format : AAC LC
Format/Info : Advanced Audio
Codec ID : mp4a-40-2
Duration : 2 h 13 min
Bit rate mode : Constant
Bit rate : 192 kb/s
Channel(s) : 2 channels
Channel layout : L R
Sampling rate : 48.0 kHz
Frame rate : 46.875 FPS (1024 SPF)
Compression mode : Lossy
Stream size : 184 MiB (8%)
Title : simple_aac_recording
Default : Yes
Alternate group : 1

TJPW Tokyo Princess Cup 8

Name of the event: TJPW 8th Tokyo Princess Cup – Tag 5
Date: 31.07.2021
Promotion: Tokyo Joshi Pro-Wrestling
Type: TV-Show
Location: Tokyo, Japan
Arena: Shinjuku FACE
Attendance: 226
Broadcast type: Live
Broadcast date: 31.07.2021
TV station/network: Wrestle Universe

TJPW Tokyo Princess Cup 8

6 Woman Tag Team Match
Kaya Toribami, Mirai Maiumi & Pom Harajuku defeated Mahiro Kiryu, Yuki Kamifuku & Moka Miyamoto.

Triple Threat Match
Hyper Misao defeated Haruna Neko and Nodoka Tenma.

6 Woman Tag Team Match
Yuki Arai, Hikari Noa & Raku defeated Marika Kobashi, Arisu Endo & Nao Kakuta.

Tokyo Princess Cup Quarter Final Match
Maki Itoh defeated Suzume.

Tokyo Princess Cup Quarter Final Match
Miu Watanabe defeated Yuki Aino.

Tokyo Princess Cup Quarter Final Match
Shoko Nakajima defeated Rika Tatsumi.

Tokyo Princess Cup Quarter Final Match
MIZUKI defeated Miyu Yamashita.

TJPW Tokyo Princess Cup 8

Complete name : 2021.07.31.TJPW.Tokyo.Princess.Cup.8.(Wrestle.Universe).mp4
Format : MPEG-4
Format profile : Base Media
Codec ID : isom
File size : 2.39 GiB
Duration : 2 h 13 min
Overall bit rate : 2 557 kb/s

Video
ID : 1
Format : AVC
Format/Info : Advanced Video
Duration : 2 h 13 min
Bit rate : 2 352 kb/s
Width : 1 280 pixels
Height : 720 pixels
Display aspect ratio : 16:9
Frame rate mode : Constant
Frame rate : 60.000 FPS
Color space : YUV
Chroma subsampling : 4:2:0
Bit depth : 8 bits
Scan type : Progressive
Bits/(Pixel*Frame) : 0.043
Stream size : 2.20 GiB (92%)
Color primaries : BT.709
Transfer characteristics : BT.709
Matrix coefficients : BT.709
Codec configuration box : avc

TJPW Tokyo Princess Cup 8

Audio
ID : 2
Format : AAC LC
Format/Info : Advanced Audio
Codec ID : mp4a-40-2
Duration : 2 h 13 min
Bit rate mode : Constant
Bit rate : 192 kb/s
Channel(s) : 2 channels
Channel layout : L R
Sampling rate : 48.0 kHz
Frame rate : 46.875 FPS (1024 SPF)
Compression mode : Lossy
Stream size : 184 MiB (8%)
Title : simple_aac_recording
Default : Yes
Alternate group : 1

TJPW Tokyo Princess Cup 8

Name of the event: TJPW 8th Tokyo Princess Cup – Tag 5
Date: 31.07.2021
Promotion: Tokyo Joshi Pro-Wrestling
Type: TV-Show
Location: Tokyo, Japan
Arena: Shinjuku FACE
Attendance: 226
Broadcast type: Live
Broadcast date: 31.07.2021
TV station/network: Wrestle Universe

TJPW Tokyo Princess Cup 8

6 Woman Tag Team Match
Kaya Toribami, Mirai Maiumi & Pom Harajuku defeated Mahiro Kiryu, Yuki Kamifuku & Moka Miyamoto.

Triple Threat Match
Hyper Misao defeated Haruna Neko and Nodoka Tenma.

6 Woman Tag Team Match
Yuki Arai, Hikari Noa & Raku defeated Marika Kobashi, Arisu Endo & Nao Kakuta.

Tokyo Princess Cup Quarter Final Match
Maki Itoh defeated Suzume.

Tokyo Princess Cup Quarter Final Match
Miu Watanabe defeated Yuki Aino.

Tokyo Princess Cup Quarter Final Match
Shoko Nakajima defeated Rika Tatsumi.

Tokyo Princess Cup Quarter Final Match
MIZUKI defeated Miyu Yamashita.

TJPW Tokyo Princess Cup 8

Complete name : 2021.07.31.TJPW.Tokyo.Princess.Cup.8.(Wrestle.Universe).mp4
Format : MPEG-4
Format profile : Base Media
Codec ID : isom
File size : 2.39 GiB
Duration : 2 h 13 min
Overall bit rate : 2 557 kb/s

Video
ID : 1
Format : AVC
Format/Info : Advanced Video
Duration : 2 h 13 min
Bit rate : 2 352 kb/s
Width : 1 280 pixels
Height : 720 pixels
Display aspect ratio : 16:9
Frame rate mode : Constant
Frame rate : 60.000 FPS
Color space : YUV
Chroma subsampling : 4:2:0
Bit depth : 8 bits
Scan type : Progressive
Bits/(Pixel*Frame) : 0.043
Stream size : 2.20 GiB (92%)
Color primaries : BT.709
Transfer characteristics : BT.709
Matrix coefficients : BT.709
Codec configuration box : avc

TJPW Tokyo Princess Cup 8

Audio
ID : 2
Format : AAC LC
Format/Info : Advanced Audio
Codec ID : mp4a-40-2
Duration : 2 h 13 min
Bit rate mode : Constant
Bit rate : 192 kb/s
Channel(s) : 2 channels
Channel layout : L R
Sampling rate : 48.0 kHz
Frame rate : 46.875 FPS (1024 SPF)
Compression mode : Lossy
Stream size : 184 MiB (8%)
Title : simple_aac_recording
Default : Yes
Alternate group : 1

TJPW Tokyo Princess Cup 8

Name of the event: TJPW 8th Tokyo Princess Cup – Tag 5
Date: 31.07.2021
Promotion: Tokyo Joshi Pro-Wrestling
Type: TV-Show
Location: Tokyo, Japan
Arena: Shinjuku FACE
Attendance: 226
Broadcast type: Live
Broadcast date: 31.07.2021
TV station/network: Wrestle Universe

TJPW Tokyo Princess Cup 8

6 Woman Tag Team Match
Kaya Toribami, Mirai Maiumi & Pom Harajuku defeated Mahiro Kiryu, Yuki Kamifuku & Moka Miyamoto.

Triple Threat Match
Hyper Misao defeated Haruna Neko and Nodoka Tenma.

6 Woman Tag Team Match
Yuki Arai, Hikari Noa & Raku defeated Marika Kobashi, Arisu Endo & Nao Kakuta.

Tokyo Princess Cup Quarter Final Match
Maki Itoh defeated Suzume.

Tokyo Princess Cup Quarter Final Match
Miu Watanabe defeated Yuki Aino.

Tokyo Princess Cup Quarter Final Match
Shoko Nakajima defeated Rika Tatsumi.

Tokyo Princess Cup Quarter Final Match
MIZUKI defeated Miyu Yamashita.

TJPW Tokyo Princess Cup 8

Complete name : 2021.07.31.TJPW.Tokyo.Princess.Cup.8.(Wrestle.Universe).mp4
Format : MPEG-4
Format profile : Base Media
Codec ID : isom
File size : 2.39 GiB
Duration : 2 h 13 min
Overall bit rate : 2 557 kb/s

Video
ID : 1
Format : AVC
Format/Info : Advanced Video
Duration : 2 h 13 min
Bit rate : 2 352 kb/s
Width : 1 280 pixels
Height : 720 pixels
Display aspect ratio : 16:9
Frame rate mode : Constant
Frame rate : 60.000 FPS
Color space : YUV
Chroma subsampling : 4:2:0
Bit depth : 8 bits
Scan type : Progressive
Bits/(Pixel*Frame) : 0.043
Stream size : 2.20 GiB (92%)
Color primaries : BT.709
Transfer characteristics : BT.709
Matrix coefficients : BT.709
Codec configuration box : avc

TJPW Tokyo Princess Cup 8

Audio
ID : 2
Format : AAC LC
Format/Info : Advanced Audio
Codec ID : mp4a-40-2
Duration : 2 h 13 min
Bit rate mode : Constant
Bit rate : 192 kb/s
Channel(s) : 2 channels
Channel layout : L R
Sampling rate : 48.0 kHz
Frame rate : 46.875 FPS (1024 SPF)
Compression mode : Lossy
Stream size : 184 MiB (8%)
Title : simple_aac_recording
Default : Yes
Alternate group : 1

TJPW Tokyo Princess Cup 8

Name of the event: TJPW 8th Tokyo Princess Cup – Tag 5
Date: 31.07.2021
Promotion: Tokyo Joshi Pro-Wrestling
Type: TV-Show
Location: Tokyo, Japan
Arena: Shinjuku FACE
Attendance: 226
Broadcast type: Live
Broadcast date: 31.07.2021
TV station/network: Wrestle Universe

TJPW Tokyo Princess Cup 8

6 Woman Tag Team Match
Kaya Toribami, Mirai Maiumi & Pom Harajuku defeated Mahiro Kiryu, Yuki Kamifuku & Moka Miyamoto.

Triple Threat Match
Hyper Misao defeated Haruna Neko and Nodoka Tenma.

6 Woman Tag Team Match
Yuki Arai, Hikari Noa & Raku defeated Marika Kobashi, Arisu Endo & Nao Kakuta.

Tokyo Princess Cup Quarter Final Match
Maki Itoh defeated Suzume.

Tokyo Princess Cup Quarter Final Match
Miu Watanabe defeated Yuki Aino.

Tokyo Princess Cup Quarter Final Match
Shoko Nakajima defeated Rika Tatsumi.

Tokyo Princess Cup Quarter Final Match
MIZUKI defeated Miyu Yamashita.

TJPW Tokyo Princess Cup 8

Complete name : 2021.07.31.TJPW.Tokyo.Princess.Cup.8.(Wrestle.Universe).mp4
Format : MPEG-4
Format profile : Base Media
Codec ID : isom
File size : 2.39 GiB
Duration : 2 h 13 min
Overall bit rate : 2 557 kb/s

Video
ID : 1
Format : AVC
Format/Info : Advanced Video
Duration : 2 h 13 min
Bit rate : 2 352 kb/s
Width : 1 280 pixels
Height : 720 pixels
Display aspect ratio : 16:9
Frame rate mode : Constant
Frame rate : 60.000 FPS
Color space : YUV
Chroma subsampling : 4:2:0
Bit depth : 8 bits
Scan type : Progressive
Bits/(Pixel*Frame) : 0.043
Stream size : 2.20 GiB (92%)
Color primaries : BT.709
Transfer characteristics : BT.709
Matrix coefficients : BT.709
Codec configuration box : avc

TJPW Tokyo Princess Cup 8

Audio
ID : 2
Format : AAC LC
Format/Info : Advanced Audio
Codec ID : mp4a-40-2
Duration : 2 h 13 min
Bit rate mode : Constant
Bit rate : 192 kb/s
Channel(s) : 2 channels
Channel layout : L R
Sampling rate : 48.0 kHz
Frame rate : 46.875 FPS (1024 SPF)
Compression mode : Lossy
Stream size : 184 MiB (8%)
Title : simple_aac_recording
Default : Yes
Alternate group : 1

TJPW Tokyo Princess Cup 8

Name of the event: TJPW 8th Tokyo Princess Cup – Tag 5
Date: 31.07.2021
Promotion: Tokyo Joshi Pro-Wrestling
Type: TV-Show
Location: Tokyo, Japan
Arena: Shinjuku FACE
Attendance: 226
Broadcast type: Live
Broadcast date: 31.07.2021
TV station/network: Wrestle Universe

TJPW Tokyo Princess Cup 8

6 Woman Tag Team Match
Kaya Toribami, Mirai Maiumi & Pom Harajuku defeated Mahiro Kiryu, Yuki Kamifuku & Moka Miyamoto.

Triple Threat Match
Hyper Misao defeated Haruna Neko and Nodoka Tenma.

6 Woman Tag Team Match
Yuki Arai, Hikari Noa & Raku defeated Marika Kobashi, Arisu Endo & Nao Kakuta.

Tokyo Princess Cup Quarter Final Match
Maki Itoh defeated Suzume.

Tokyo Princess Cup Quarter Final Match
Miu Watanabe defeated Yuki Aino.

Tokyo Princess Cup Quarter Final Match
Shoko Nakajima defeated Rika Tatsumi.

Tokyo Princess Cup Quarter Final Match
MIZUKI defeated Miyu Yamashita.

TJPW Tokyo Princess Cup 8

Complete name : 2021.07.31.TJPW.Tokyo.Princess.Cup.8.(Wrestle.Universe).mp4
Format : MPEG-4
Format profile : Base Media
Codec ID : isom
File size : 2.39 GiB
Duration : 2 h 13 min
Overall bit rate : 2 557 kb/s

Video
ID : 1
Format : AVC
Format/Info : Advanced Video
Duration : 2 h 13 min
Bit rate : 2 352 kb/s
Width : 1 280 pixels
Height : 720 pixels
Display aspect ratio : 16:9
Frame rate mode : Constant
Frame rate : 60.000 FPS
Color space : YUV
Chroma subsampling : 4:2:0
Bit depth : 8 bits
Scan type : Progressive
Bits/(Pixel*Frame) : 0.043
Stream size : 2.20 GiB (92%)
Color primaries : BT.709
Transfer characteristics : BT.709
Matrix coefficients : BT.709
Codec configuration box : avc

TJPW Tokyo Princess Cup 8

Audio
ID : 2
Format : AAC LC
Format/Info : Advanced Audio
Codec ID : mp4a-40-2
Duration : 2 h 13 min
Bit rate mode : Constant
Bit rate : 192 kb/s
Channel(s) : 2 channels
Channel layout : L R
Sampling rate : 48.0 kHz
Frame rate : 46.875 FPS (1024 SPF)
Compression mode : Lossy
Stream size : 184 MiB (8%)
Title : simple_aac_recording
Default : Yes
Alternate group : 1

TJPW Tokyo Princess Cup 8

Name of the event: TJPW 8th Tokyo Princess Cup – Tag 5
Date: 31.07.2021
Promotion: Tokyo Joshi Pro-Wrestling
Type: TV-Show
Location: Tokyo, Japan
Arena: Shinjuku FACE
Attendance: 226
Broadcast type: Live
Broadcast date: 31.07.2021
TV station/network: Wrestle Universe

TJPW Tokyo Princess Cup 8

6 Woman Tag Team Match
Kaya Toribami, Mirai Maiumi & Pom Harajuku defeated Mahiro Kiryu, Yuki Kamifuku & Moka Miyamoto.

Triple Threat Match
Hyper Misao defeated Haruna Neko and Nodoka Tenma.

6 Woman Tag Team Match
Yuki Arai, Hikari Noa & Raku defeated Marika Kobashi, Arisu Endo & Nao Kakuta.

Tokyo Princess Cup Quarter Final Match
Maki Itoh defeated Suzume.

Tokyo Princess Cup Quarter Final Match
Miu Watanabe defeated Yuki Aino.

Tokyo Princess Cup Quarter Final Match
Shoko Nakajima defeated Rika Tatsumi.

Tokyo Princess Cup Quarter Final Match
MIZUKI defeated Miyu Yamashita.

TJPW Tokyo Princess Cup 8

Complete name : 2021.07.31.TJPW.Tokyo.Princess.Cup.8.(Wrestle.Universe).mp4
Format : MPEG-4
Format profile : Base Media
Codec ID : isom
File size : 2.39 GiB
Duration : 2 h 13 min
Overall bit rate : 2 557 kb/s

Video
ID : 1
Format : AVC
Format/Info : Advanced Video
Duration : 2 h 13 min
Bit rate : 2 352 kb/s
Width : 1 280 pixels
Height : 720 pixels
Display aspect ratio : 16:9
Frame rate mode : Constant
Frame rate : 60.000 FPS
Color space : YUV
Chroma subsampling : 4:2:0
Bit depth : 8 bits
Scan type : Progressive
Bits/(Pixel*Frame) : 0.043
Stream size : 2.20 GiB (92%)
Color primaries : BT.709
Transfer characteristics : BT.709
Matrix coefficients : BT.709
Codec configuration box : avc

TJPW Tokyo Princess Cup 8

Audio
ID : 2
Format : AAC LC
Format/Info : Advanced Audio
Codec ID : mp4a-40-2
Duration : 2 h 13 min
Bit rate mode : Constant
Bit rate : 192 kb/s
Channel(s) : 2 channels
Channel layout : L R
Sampling rate : 48.0 kHz
Frame rate : 46.875 FPS (1024 SPF)
Compression mode : Lossy
Stream size : 184 MiB (8%)
Title : simple_aac_recording
Default : Yes
Alternate group : 1

TJPW Tokyo Princess Cup 8

Name of the event: TJPW 8th Tokyo Princess Cup – Tag 5
Date: 31.07.2021
Promotion: Tokyo Joshi Pro-Wrestling
Type: TV-Show
Location: Tokyo, Japan
Arena: Shinjuku FACE
Attendance: 226
Broadcast type: Live
Broadcast date: 31.07.2021
TV station/network: Wrestle Universe

TJPW Tokyo Princess Cup 8

6 Woman Tag Team Match
Kaya Toribami, Mirai Maiumi & Pom Harajuku defeated Mahiro Kiryu, Yuki Kamifuku & Moka Miyamoto.

Triple Threat Match
Hyper Misao defeated Haruna Neko and Nodoka Tenma.

6 Woman Tag Team Match
Yuki Arai, Hikari Noa & Raku defeated Marika Kobashi, Arisu Endo & Nao Kakuta.

Tokyo Princess Cup Quarter Final Match
Maki Itoh defeated Suzume.

Tokyo Princess Cup Quarter Final Match
Miu Watanabe defeated Yuki Aino.

Tokyo Princess Cup Quarter Final Match
Shoko Nakajima defeated Rika Tatsumi.

Tokyo Princess Cup Quarter Final Match
MIZUKI defeated Miyu Yamashita.

TJPW Tokyo Princess Cup 8

Complete name : 2021.07.31.TJPW.Tokyo.Princess.Cup.8.(Wrestle.Universe).mp4
Format : MPEG-4
Format profile : Base Media
Codec ID : isom
File size : 2.39 GiB
Duration : 2 h 13 min
Overall bit rate : 2 557 kb/s

Video
ID : 1
Format : AVC
Format/Info : Advanced Video
Duration : 2 h 13 min
Bit rate : 2 352 kb/s
Width : 1 280 pixels
Height : 720 pixels
Display aspect ratio : 16:9
Frame rate mode : Constant
Frame rate : 60.000 FPS
Color space : YUV
Chroma subsampling : 4:2:0
Bit depth : 8 bits
Scan type : Progressive
Bits/(Pixel*Frame) : 0.043
Stream size : 2.20 GiB (92%)
Color primaries : BT.709
Transfer characteristics : BT.709
Matrix coefficients : BT.709
Codec configuration box : avc

TJPW Tokyo Princess Cup 8

Audio
ID : 2
Format : AAC LC
Format/Info : Advanced Audio
Codec ID : mp4a-40-2
Duration : 2 h 13 min
Bit rate mode : Constant
Bit rate : 192 kb/s
Channel(s) : 2 channels
Channel layout : L R
Sampling rate : 48.0 kHz
Frame rate : 46.875 FPS (1024 SPF)
Compression mode : Lossy
Stream size : 184 MiB (8%)
Title : simple_aac_recording
Default : Yes
Alternate group : 1

TJPW Tokyo Princess Cup 8

Name of the event: TJPW 8th Tokyo Princess Cup – Tag 5
Date: 31.07.2021
Promotion: Tokyo Joshi Pro-Wrestling
Type: TV-Show
Location: Tokyo, Japan
Arena: Shinjuku FACE
Attendance: 226
Broadcast type: Live
Broadcast date: 31.07.2021
TV station/network: Wrestle Universe

TJPW Tokyo Princess Cup 8

6 Woman Tag Team Match
Kaya Toribami, Mirai Maiumi & Pom Harajuku defeated Mahiro Kiryu, Yuki Kamifuku & Moka Miyamoto.

Triple Threat Match
Hyper Misao defeated Haruna Neko and Nodoka Tenma.

6 Woman Tag Team Match
Yuki Arai, Hikari Noa & Raku defeated Marika Kobashi, Arisu Endo & Nao Kakuta.

Tokyo Princess Cup Quarter Final Match
Maki Itoh defeated Suzume.

Tokyo Princess Cup Quarter Final Match
Miu Watanabe defeated Yuki Aino.

Tokyo Princess Cup Quarter Final Match
Shoko Nakajima defeated Rika Tatsumi.

Tokyo Princess Cup Quarter Final Match
MIZUKI defeated Miyu Yamashita.

TJPW Tokyo Princess Cup 8

Complete name : 2021.07.31.TJPW.Tokyo.Princess.Cup.8.(Wrestle.Universe).mp4
Format : MPEG-4
Format profile : Base Media
Codec ID : isom
File size : 2.39 GiB
Duration : 2 h 13 min
Overall bit rate : 2 557 kb/s

Video
ID : 1
Format : AVC
Format/Info : Advanced Video
Duration : 2 h 13 min
Bit rate : 2 352 kb/s
Width : 1 280 pixels
Height : 720 pixels
Display aspect ratio : 16:9
Frame rate mode : Constant
Frame rate : 60.000 FPS
Color space : YUV
Chroma subsampling : 4:2:0
Bit depth : 8 bits
Scan type : Progressive
Bits/(Pixel*Frame) : 0.043
Stream size : 2.20 GiB (92%)
Color primaries : BT.709
Transfer characteristics : BT.709
Matrix coefficients : BT.709
Codec configuration box : avc

TJPW Tokyo Princess Cup 8

Audio
ID : 2
Format : AAC LC
Format/Info : Advanced Audio
Codec ID : mp4a-40-2
Duration : 2 h 13 min
Bit rate mode : Constant
Bit rate : 192 kb/s
Channel(s) : 2 channels
Channel layout : L R
Sampling rate : 48.0 kHz
Frame rate : 46.875 FPS (1024 SPF)
Compression mode : Lossy
Stream size : 184 MiB (8%)
Title : simple_aac_recording
Default : Yes
Alternate group : 1

TJPW Tokyo Princess Cup 8

Name of the event: TJPW 8th Tokyo Princess Cup – Tag 5
Date: 31.07.2021
Promotion: Tokyo Joshi Pro-Wrestling
Type: TV-Show
Location: Tokyo, Japan
Arena: Shinjuku FACE
Attendance: 226
Broadcast type: Live
Broadcast date: 31.07.2021
TV station/network: Wrestle Universe

TJPW Tokyo Princess Cup 8

6 Woman Tag Team Match
Kaya Toribami, Mirai Maiumi & Pom Harajuku defeated Mahiro Kiryu, Yuki Kamifuku & Moka Miyamoto.

Triple Threat Match
Hyper Misao defeated Haruna Neko and Nodoka Tenma.

6 Woman Tag Team Match
Yuki Arai, Hikari Noa & Raku defeated Marika Kobashi, Arisu Endo & Nao Kakuta.

Tokyo Princess Cup Quarter Final Match
Maki Itoh defeated Suzume.

Tokyo Princess Cup Quarter Final Match
Miu Watanabe defeated Yuki Aino.

Tokyo Princess Cup Quarter Final Match
Shoko Nakajima defeated Rika Tatsumi.

Tokyo Princess Cup Quarter Final Match
MIZUKI defeated Miyu Yamashita.

TJPW Tokyo Princess Cup 8

 

[collapse]

 

 

https://dx-tv.com/

You May Also Like

Leave a Reply

Your email address will not be published. Required fields are marked *

This site uses Akismet to reduce spam. Learn how your comment data is processed.