AEW Dynamite Homecoming 2021 08 04 TNT 1080p Free

AEW Dynamite Homecoming 2021 08 04 TNT 1080p Free HEEL Replay DX-TV

AEW Dynamite Homecoming

 AEW Dynamite Homecoming

 

 

 

Download Links with High Speed


Dopapk

 

 

Show Links

 

http://shrt10.com/42mYKQ

 

[collapse]

 

 

Nitroflare

 

 

Show Links

 

http://shrt10.com/QDyAIIUYS

 

[collapse]

 

 

Rapidgator

 

 

Show Links

 

http://shrt10.com/UFsso

 

[collapse]

 

 

Uploaded

 

 

Show Links

 

http://shrt10.com/7hiHXm

 

[collapse]

 

 

Watch online

 

Server 1

 

 

 

 

AEW Dynamite Homecoming

 

 

 

 

Server-2

 

 

 

 

watch now

 

 

 

|Server-3

 

 

 

 

watch now

 

 

Uploaded By Site DX-TV.com

 

 

Show Info This Show

AEW Dynamite Homecoming

 

Complete name : AEW.Dynamite.2021.08.04.TNT.1080p.WEB.h264-HEEL.mkv
Format : Matroska
Format version : Version 4
File size : 4.19 GiB
Duration : 1 h 44 min
Overall bit rate mode : Variable
Overall bit rate : 5 725 kb/s

Video
ID : 1
Format : AVC
Format/Info : Advanced Video
Duration : 1 h 44 min
Bit rate mode : Variable
Bit rate : 5 227 kb/s
Nominal bit rate : 4 923 kb/s
Maximum bit rate : 8 000 kb/s
Width : 1 920 pixels
Height : 1 080 pixels
Display aspect ratio : 16:9
Frame rate mode : Constant
Frame rate : 59.940 (60000/1001) FPS
Standard : Component
Color space : YUV
Chroma subsampling : 4:2:0
Bit depth : 8 bits
Scan type : Progressive
Bits/(Pixel*Frame) : 0.042
Stream size : 3.83 GiB (91%)
Forced : No
Color range : Limited
Color primaries : BT.709
Transfer characteristics : BT.709
Matrix coefficients : BT.709

AEW Dynamite Homecoming

Audio
ID : 2
Format : AC-3
Format/Info : Audio Coding 3
Commercial name : Dolby Digital
Codec ID : A_AC3
Duration : 1 h 44 min
Bit rate mode : Constant
Bit rate : 384 kb/s
Channel(s) : 6 channels
Channel layout : L R C LFE Ls Rs
Sampling rate : 48.0 kHz
Frame rate : 31.250 FPS (1536 SPF)
Bit depth : 32 bits
Compression mode : Lossy
Stream size : 288 MiB (7%)
Language : English
Service kind : Complete Main
Default : Yes
Forced : No

AEW Dynamite Homecoming

It will always be home base for All Elite Wrestling, and after running all our events there for over a year, it certainly became our home.

That’s why it is only appropriate that this Wednesday night, when DYNAMITE once more emanates from Daily’s Place in Jacksonville, we dub this event HOMECOMING 2021!

AEW Dynamite Homecoming

 

Last week,our stellar fans in the Queen City witnessed absolute carnage when Chris Jericho barely survived his second labour that came in the form of “The Death Match King” Nick Gage.

With thirty years under his belt as a competitor, one would think Jericho had experienced all that pro wrestling had to offer, but in the main event,

the former AEW World Champion endured an onslaught of new experiences in the form of light tubes,

panes of glass, and a pizza cutter. It was unlike anything every witnessed in AEW, on TNT,

or by Chris during his entire career, but he lived to tell the tale, if only to find out his third task would take the form of an old foe.

AEW Dynamite Homecoming

FIGHT FOR THE FALLEN 2021 also saw the “Ace of New Japan” Hiroshi Tanahashi drop in via video to challenge the winner of the Lance Archer /Hikuleo IWGP US Title bout. So now

“The Murderhawk Monster” has a date with that living legend of NJPW!

The Elite shut down Hangman Page and The Dark Order’s challenge in an unforgettable ten-men elimination tag,

FTR showed the world why they are the best tag team in AEW (save the champions)

with their victory over Santana and Ortiz, and a landmark announcement was made regarding AEW RAMPAGE on Friday August 20th!

AEW Dynamite Homecoming

Complete name : AEW.Dynamite.2021.08.04.TNT.1080p.WEB.h264-HEEL.mkv
Format : Matroska
Format version : Version 4
File size : 4.19 GiB
Duration : 1 h 44 min
Overall bit rate mode : Variable
Overall bit rate : 5 725 kb/s

Video
ID : 1
Format : AVC
Format/Info : Advanced Video
Duration : 1 h 44 min
Bit rate mode : Variable
Bit rate : 5 227 kb/s
Nominal bit rate : 4 923 kb/s
Maximum bit rate : 8 000 kb/s
Width : 1 920 pixels
Height : 1 080 pixels
Display aspect ratio : 16:9
Frame rate mode : Constant
Frame rate : 59.940 (60000/1001) FPS
Standard : Component
Color space : YUV
Chroma subsampling : 4:2:0
Bit depth : 8 bits
Scan type : Progressive
Bits/(Pixel*Frame) : 0.042
Stream size : 3.83 GiB (91%)
Forced : No
Color range : Limited
Color primaries : BT.709
Transfer characteristics : BT.709
Matrix coefficients : BT.709

AEW Dynamite Homecoming

Audio
ID : 2
Format : AC-3
Format/Info : Audio Coding 3
Commercial name : Dolby Digital
Codec ID : A_AC3
Duration : 1 h 44 min
Bit rate mode : Constant
Bit rate : 384 kb/s
Channel(s) : 6 channels
Channel layout : L R C LFE Ls Rs
Sampling rate : 48.0 kHz
Frame rate : 31.250 FPS (1536 SPF)
Bit depth : 32 bits
Compression mode : Lossy
Stream size : 288 MiB (7%)
Language : English
Service kind : Complete Main
Default : Yes
Forced : No

AEW Dynamite Homecoming

It will always be home base for All Elite Wrestling, and after running all our events there for over a year, it certainly became our home.

That’s why it is only appropriate that this Wednesday night, when DYNAMITE once more emanates from Daily’s Place in Jacksonville, we dub this event HOMECOMING 2021!

AEW Dynamite Homecoming

 

Last week,our stellar fans in the Queen City witnessed absolute carnage when Chris Jericho barely survived his second labour that came in the form of “The Death Match King” Nick Gage.

With thirty years under his belt as a competitor, one would think Jericho had experienced all that pro wrestling had to offer, but in the main event,

the former AEW World Champion endured an onslaught of new experiences in the form of light tubes,

panes of glass, and a pizza cutter. It was unlike anything every witnessed in AEW, on TNT,

or by Chris during his entire career, but he lived to tell the tale, if only to find out his third task would take the form of an old foe.

AEW Dynamite Homecoming

FIGHT FOR THE FALLEN 2021 also saw the “Ace of New Japan” Hiroshi Tanahashi drop in via video to challenge the winner of the Lance Archer /Hikuleo IWGP US Title bout. So now

“The Murderhawk Monster” has a date with that living legend of NJPW!

The Elite shut down Hangman Page and The Dark Order’s challenge in an unforgettable ten-men elimination tag,

FTR showed the world why they are the best tag team in AEW (save the champions)

with their victory over Santana and Ortiz, and a landmark announcement was made regarding AEW RAMPAGE on Friday August 20th!

AEW Dynamite Homecoming

Complete name : AEW.Dynamite.2021.08.04.TNT.1080p.WEB.h264-HEEL.mkv
Format : Matroska
Format version : Version 4
File size : 4.19 GiB
Duration : 1 h 44 min
Overall bit rate mode : Variable
Overall bit rate : 5 725 kb/s

Video
ID : 1
Format : AVC
Format/Info : Advanced Video
Duration : 1 h 44 min
Bit rate mode : Variable
Bit rate : 5 227 kb/s
Nominal bit rate : 4 923 kb/s
Maximum bit rate : 8 000 kb/s
Width : 1 920 pixels
Height : 1 080 pixels
Display aspect ratio : 16:9
Frame rate mode : Constant
Frame rate : 59.940 (60000/1001) FPS
Standard : Component
Color space : YUV
Chroma subsampling : 4:2:0
Bit depth : 8 bits
Scan type : Progressive
Bits/(Pixel*Frame) : 0.042
Stream size : 3.83 GiB (91%)
Forced : No
Color range : Limited
Color primaries : BT.709
Transfer characteristics : BT.709
Matrix coefficients : BT.709

AEW Dynamite Homecoming

Audio
ID : 2
Format : AC-3
Format/Info : Audio Coding 3
Commercial name : Dolby Digital
Codec ID : A_AC3
Duration : 1 h 44 min
Bit rate mode : Constant
Bit rate : 384 kb/s
Channel(s) : 6 channels
Channel layout : L R C LFE Ls Rs
Sampling rate : 48.0 kHz
Frame rate : 31.250 FPS (1536 SPF)
Bit depth : 32 bits
Compression mode : Lossy
Stream size : 288 MiB (7%)
Language : English
Service kind : Complete Main
Default : Yes
Forced : No

AEW Dynamite Homecoming

It will always be home base for All Elite Wrestling, and after running all our events there for over a year, it certainly became our home.

That’s why it is only appropriate that this Wednesday night, when DYNAMITE once more emanates from Daily’s Place in Jacksonville, we dub this event HOMECOMING 2021!

AEW Dynamite Homecoming

 

Last week,our stellar fans in the Queen City witnessed absolute carnage when Chris Jericho barely survived his second labour that came in the form of “The Death Match King” Nick Gage.

With thirty years under his belt as a competitor, one would think Jericho had experienced all that pro wrestling had to offer, but in the main event,

the former AEW World Champion endured an onslaught of new experiences in the form of light tubes,

panes of glass, and a pizza cutter. It was unlike anything every witnessed in AEW, on TNT,

or by Chris during his entire career, but he lived to tell the tale, if only to find out his third task would take the form of an old foe.

AEW Dynamite Homecoming

FIGHT FOR THE FALLEN 2021 also saw the “Ace of New Japan” Hiroshi Tanahashi drop in via video to challenge the winner of the Lance Archer /Hikuleo IWGP US Title bout. So now

“The Murderhawk Monster” has a date with that living legend of NJPW!

The Elite shut down Hangman Page and The Dark Order’s challenge in an unforgettable ten-men elimination tag,

FTR showed the world why they are the best tag team in AEW (save the champions)

with their victory over Santana and Ortiz, and a landmark announcement was made regarding AEW RAMPAGE on Friday August 20th!

AEW Dynamite Homecoming

Complete name : AEW.Dynamite.2021.08.04.TNT.1080p.WEB.h264-HEEL.mkv
Format : Matroska
Format version : Version 4
File size : 4.19 GiB
Duration : 1 h 44 min
Overall bit rate mode : Variable
Overall bit rate : 5 725 kb/s

Video
ID : 1
Format : AVC
Format/Info : Advanced Video
Duration : 1 h 44 min
Bit rate mode : Variable
Bit rate : 5 227 kb/s
Nominal bit rate : 4 923 kb/s
Maximum bit rate : 8 000 kb/s
Width : 1 920 pixels
Height : 1 080 pixels
Display aspect ratio : 16:9
Frame rate mode : Constant
Frame rate : 59.940 (60000/1001) FPS
Standard : Component
Color space : YUV
Chroma subsampling : 4:2:0
Bit depth : 8 bits
Scan type : Progressive
Bits/(Pixel*Frame) : 0.042
Stream size : 3.83 GiB (91%)
Forced : No
Color range : Limited
Color primaries : BT.709
Transfer characteristics : BT.709
Matrix coefficients : BT.709

AEW Dynamite Homecoming

Audio
ID : 2
Format : AC-3
Format/Info : Audio Coding 3
Commercial name : Dolby Digital
Codec ID : A_AC3
Duration : 1 h 44 min
Bit rate mode : Constant
Bit rate : 384 kb/s
Channel(s) : 6 channels
Channel layout : L R C LFE Ls Rs
Sampling rate : 48.0 kHz
Frame rate : 31.250 FPS (1536 SPF)
Bit depth : 32 bits
Compression mode : Lossy
Stream size : 288 MiB (7%)
Language : English
Service kind : Complete Main
Default : Yes
Forced : No

AEW Dynamite Homecoming

It will always be home base for All Elite Wrestling, and after running all our events there for over a year, it certainly became our home.

That’s why it is only appropriate that this Wednesday night, when DYNAMITE once more emanates from Daily’s Place in Jacksonville, we dub this event HOMECOMING 2021!

AEW Dynamite Homecoming

 

Last week,our stellar fans in the Queen City witnessed absolute carnage when Chris Jericho barely survived his second labour that came in the form of “The Death Match King” Nick Gage.

With thirty years under his belt as a competitor, one would think Jericho had experienced all that pro wrestling had to offer, but in the main event,

the former AEW World Champion endured an onslaught of new experiences in the form of light tubes,

panes of glass, and a pizza cutter. It was unlike anything every witnessed in AEW, on TNT,

or by Chris during his entire career, but he lived to tell the tale, if only to find out his third task would take the form of an old foe.

AEW Dynamite Homecoming

FIGHT FOR THE FALLEN 2021 also saw the “Ace of New Japan” Hiroshi Tanahashi drop in via video to challenge the winner of the Lance Archer /Hikuleo IWGP US Title bout. So now

“The Murderhawk Monster” has a date with that living legend of NJPW!

The Elite shut down Hangman Page and The Dark Order’s challenge in an unforgettable ten-men elimination tag,

FTR showed the world why they are the best tag team in AEW (save the champions)

with their victory over Santana and Ortiz, and a landmark announcement was made regarding AEW RAMPAGE on Friday August 20th!

AEW Dynamite Homecoming

Complete name : AEW.Dynamite.2021.08.04.TNT.1080p.WEB.h264-HEEL.mkv
Format : Matroska
Format version : Version 4
File size : 4.19 GiB
Duration : 1 h 44 min
Overall bit rate mode : Variable
Overall bit rate : 5 725 kb/s

Video
ID : 1
Format : AVC
Format/Info : Advanced Video
Duration : 1 h 44 min
Bit rate mode : Variable
Bit rate : 5 227 kb/s
Nominal bit rate : 4 923 kb/s
Maximum bit rate : 8 000 kb/s
Width : 1 920 pixels
Height : 1 080 pixels
Display aspect ratio : 16:9
Frame rate mode : Constant
Frame rate : 59.940 (60000/1001) FPS
Standard : Component
Color space : YUV
Chroma subsampling : 4:2:0
Bit depth : 8 bits
Scan type : Progressive
Bits/(Pixel*Frame) : 0.042
Stream size : 3.83 GiB (91%)
Forced : No
Color range : Limited
Color primaries : BT.709
Transfer characteristics : BT.709
Matrix coefficients : BT.709

AEW Dynamite Homecoming

Audio
ID : 2
Format : AC-3
Format/Info : Audio Coding 3
Commercial name : Dolby Digital
Codec ID : A_AC3
Duration : 1 h 44 min
Bit rate mode : Constant
Bit rate : 384 kb/s
Channel(s) : 6 channels
Channel layout : L R C LFE Ls Rs
Sampling rate : 48.0 kHz
Frame rate : 31.250 FPS (1536 SPF)
Bit depth : 32 bits
Compression mode : Lossy
Stream size : 288 MiB (7%)
Language : English
Service kind : Complete Main
Default : Yes
Forced : No

AEW Dynamite Homecoming

It will always be home base for All Elite Wrestling, and after running all our events there for over a year, it certainly became our home.

That’s why it is only appropriate that this Wednesday night, when DYNAMITE once more emanates from Daily’s Place in Jacksonville, we dub this event HOMECOMING 2021!

AEW Dynamite Homecoming

 

Last week,our stellar fans in the Queen City witnessed absolute carnage when Chris Jericho barely survived his second labour that came in the form of “The Death Match King” Nick Gage.

With thirty years under his belt as a competitor, one would think Jericho had experienced all that pro wrestling had to offer, but in the main event,

the former AEW World Champion endured an onslaught of new experiences in the form of light tubes,

panes of glass, and a pizza cutter. It was unlike anything every witnessed in AEW, on TNT,

or by Chris during his entire career, but he lived to tell the tale, if only to find out his third task would take the form of an old foe.

AEW Dynamite Homecoming

FIGHT FOR THE FALLEN 2021 also saw the “Ace of New Japan” Hiroshi Tanahashi drop in via video to challenge the winner of the Lance Archer /Hikuleo IWGP US Title bout. So now

“The Murderhawk Monster” has a date with that living legend of NJPW!

The Elite shut down Hangman Page and The Dark Order’s challenge in an unforgettable ten-men elimination tag,

FTR showed the world why they are the best tag team in AEW (save the champions)

with their victory over Santana and Ortiz, and a landmark announcement was made regarding AEW RAMPAGE on Friday August 20th!

AEW Dynamite Homecoming

Complete name : AEW.Dynamite.2021.08.04.TNT.1080p.WEB.h264-HEEL.mkv
Format : Matroska
Format version : Version 4
File size : 4.19 GiB
Duration : 1 h 44 min
Overall bit rate mode : Variable
Overall bit rate : 5 725 kb/s

Video
ID : 1
Format : AVC
Format/Info : Advanced Video
Duration : 1 h 44 min
Bit rate mode : Variable
Bit rate : 5 227 kb/s
Nominal bit rate : 4 923 kb/s
Maximum bit rate : 8 000 kb/s
Width : 1 920 pixels
Height : 1 080 pixels
Display aspect ratio : 16:9
Frame rate mode : Constant
Frame rate : 59.940 (60000/1001) FPS
Standard : Component
Color space : YUV
Chroma subsampling : 4:2:0
Bit depth : 8 bits
Scan type : Progressive
Bits/(Pixel*Frame) : 0.042
Stream size : 3.83 GiB (91%)
Forced : No
Color range : Limited
Color primaries : BT.709
Transfer characteristics : BT.709
Matrix coefficients : BT.709

AEW Dynamite Homecoming

Audio
ID : 2
Format : AC-3
Format/Info : Audio Coding 3
Commercial name : Dolby Digital
Codec ID : A_AC3
Duration : 1 h 44 min
Bit rate mode : Constant
Bit rate : 384 kb/s
Channel(s) : 6 channels
Channel layout : L R C LFE Ls Rs
Sampling rate : 48.0 kHz
Frame rate : 31.250 FPS (1536 SPF)
Bit depth : 32 bits
Compression mode : Lossy
Stream size : 288 MiB (7%)
Language : English
Service kind : Complete Main
Default : Yes
Forced : No

AEW Dynamite Homecoming

It will always be home base for All Elite Wrestling, and after running all our events there for over a year, it certainly became our home.

That’s why it is only appropriate that this Wednesday night, when DYNAMITE once more emanates from Daily’s Place in Jacksonville, we dub this event HOMECOMING 2021!

AEW Dynamite Homecoming

 

Last week,our stellar fans in the Queen City witnessed absolute carnage when Chris Jericho barely survived his second labour that came in the form of “The Death Match King” Nick Gage.

With thirty years under his belt as a competitor, one would think Jericho had experienced all that pro wrestling had to offer, but in the main event,

the former AEW World Champion endured an onslaught of new experiences in the form of light tubes,

panes of glass, and a pizza cutter. It was unlike anything every witnessed in AEW, on TNT,

or by Chris during his entire career, but he lived to tell the tale, if only to find out his third task would take the form of an old foe.

AEW Dynamite Homecoming

FIGHT FOR THE FALLEN 2021 also saw the “Ace of New Japan” Hiroshi Tanahashi drop in via video to challenge the winner of the Lance Archer /Hikuleo IWGP US Title bout. So now

“The Murderhawk Monster” has a date with that living legend of NJPW!

The Elite shut down Hangman Page and The Dark Order’s challenge in an unforgettable ten-men elimination tag,

FTR showed the world why they are the best tag team in AEW (save the champions)

with their victory over Santana and Ortiz, and a landmark announcement was made regarding AEW RAMPAGE on Friday August 20th!

AEW Dynamite Homecoming

Complete name : AEW.Dynamite.2021.08.04.TNT.1080p.WEB.h264-HEEL.mkv
Format : Matroska
Format version : Version 4
File size : 4.19 GiB
Duration : 1 h 44 min
Overall bit rate mode : Variable
Overall bit rate : 5 725 kb/s

Video
ID : 1
Format : AVC
Format/Info : Advanced Video
Duration : 1 h 44 min
Bit rate mode : Variable
Bit rate : 5 227 kb/s
Nominal bit rate : 4 923 kb/s
Maximum bit rate : 8 000 kb/s
Width : 1 920 pixels
Height : 1 080 pixels
Display aspect ratio : 16:9
Frame rate mode : Constant
Frame rate : 59.940 (60000/1001) FPS
Standard : Component
Color space : YUV
Chroma subsampling : 4:2:0
Bit depth : 8 bits
Scan type : Progressive
Bits/(Pixel*Frame) : 0.042
Stream size : 3.83 GiB (91%)
Forced : No
Color range : Limited
Color primaries : BT.709
Transfer characteristics : BT.709
Matrix coefficients : BT.709

AEW Dynamite Homecoming

Audio
ID : 2
Format : AC-3
Format/Info : Audio Coding 3
Commercial name : Dolby Digital
Codec ID : A_AC3
Duration : 1 h 44 min
Bit rate mode : Constant
Bit rate : 384 kb/s
Channel(s) : 6 channels
Channel layout : L R C LFE Ls Rs
Sampling rate : 48.0 kHz
Frame rate : 31.250 FPS (1536 SPF)
Bit depth : 32 bits
Compression mode : Lossy
Stream size : 288 MiB (7%)
Language : English
Service kind : Complete Main
Default : Yes
Forced : No

AEW Dynamite Homecoming

It will always be home base for All Elite Wrestling, and after running all our events there for over a year, it certainly became our home.

That’s why it is only appropriate that this Wednesday night, when DYNAMITE once more emanates from Daily’s Place in Jacksonville, we dub this event HOMECOMING 2021!

AEW Dynamite Homecoming

 

Last week,our stellar fans in the Queen City witnessed absolute carnage when Chris Jericho barely survived his second labour that came in the form of “The Death Match King” Nick Gage.

With thirty years under his belt as a competitor, one would think Jericho had experienced all that pro wrestling had to offer, but in the main event,

the former AEW World Champion endured an onslaught of new experiences in the form of light tubes,

panes of glass, and a pizza cutter. It was unlike anything every witnessed in AEW, on TNT,

or by Chris during his entire career, but he lived to tell the tale, if only to find out his third task would take the form of an old foe.

AEW Dynamite Homecoming

FIGHT FOR THE FALLEN 2021 also saw the “Ace of New Japan” Hiroshi Tanahashi drop in via video to challenge the winner of the Lance Archer /Hikuleo IWGP US Title bout. So now

“The Murderhawk Monster” has a date with that living legend of NJPW!

The Elite shut down Hangman Page and The Dark Order’s challenge in an unforgettable ten-men elimination tag,

FTR showed the world why they are the best tag team in AEW (save the champions)

with their victory over Santana and Ortiz, and a landmark announcement was made regarding AEW RAMPAGE on Friday August 20th!

AEW Dynamite Homecoming

Complete name : AEW.Dynamite.2021.08.04.TNT.1080p.WEB.h264-HEEL.mkv
Format : Matroska
Format version : Version 4
File size : 4.19 GiB
Duration : 1 h 44 min
Overall bit rate mode : Variable
Overall bit rate : 5 725 kb/s

Video
ID : 1
Format : AVC
Format/Info : Advanced Video
Duration : 1 h 44 min
Bit rate mode : Variable
Bit rate : 5 227 kb/s
Nominal bit rate : 4 923 kb/s
Maximum bit rate : 8 000 kb/s
Width : 1 920 pixels
Height : 1 080 pixels
Display aspect ratio : 16:9
Frame rate mode : Constant
Frame rate : 59.940 (60000/1001) FPS
Standard : Component
Color space : YUV
Chroma subsampling : 4:2:0
Bit depth : 8 bits
Scan type : Progressive
Bits/(Pixel*Frame) : 0.042
Stream size : 3.83 GiB (91%)
Forced : No
Color range : Limited
Color primaries : BT.709
Transfer characteristics : BT.709
Matrix coefficients : BT.709

AEW Dynamite Homecoming

Audio
ID : 2
Format : AC-3
Format/Info : Audio Coding 3
Commercial name : Dolby Digital
Codec ID : A_AC3
Duration : 1 h 44 min
Bit rate mode : Constant
Bit rate : 384 kb/s
Channel(s) : 6 channels
Channel layout : L R C LFE Ls Rs
Sampling rate : 48.0 kHz
Frame rate : 31.250 FPS (1536 SPF)
Bit depth : 32 bits
Compression mode : Lossy
Stream size : 288 MiB (7%)
Language : English
Service kind : Complete Main
Default : Yes
Forced : No

AEW Dynamite Homecoming

It will always be home base for All Elite Wrestling, and after running all our events there for over a year, it certainly became our home.

That’s why it is only appropriate that this Wednesday night, when DYNAMITE once more emanates from Daily’s Place in Jacksonville, we dub this event HOMECOMING 2021!

AEW Dynamite Homecoming

 

Last week,our stellar fans in the Queen City witnessed absolute carnage when Chris Jericho barely survived his second labour that came in the form of “The Death Match King” Nick Gage.

With thirty years under his belt as a competitor, one would think Jericho had experienced all that pro wrestling had to offer, but in the main event,

the former AEW World Champion endured an onslaught of new experiences in the form of light tubes,

panes of glass, and a pizza cutter. It was unlike anything every witnessed in AEW, on TNT,

or by Chris during his entire career, but he lived to tell the tale, if only to find out his third task would take the form of an old foe.

AEW Dynamite Homecoming

FIGHT FOR THE FALLEN 2021 also saw the “Ace of New Japan” Hiroshi Tanahashi drop in via video to challenge the winner of the Lance Archer /Hikuleo IWGP US Title bout. So now

“The Murderhawk Monster” has a date with that living legend of NJPW!

The Elite shut down Hangman Page and The Dark Order’s challenge in an unforgettable ten-men elimination tag,

FTR showed the world why they are the best tag team in AEW (save the champions)

with their victory over Santana and Ortiz, and a landmark announcement was made regarding AEW RAMPAGE on Friday August 20th!

AEW Dynamite Homecoming

 

 

[collapse]

 

 

https://dx-tv.com/

Leave a Reply

Your email address will not be published. Required fields are marked *

This site uses Akismet to reduce spam. Learn how your comment data is processed.