Stardom Year End Climax 2020 12 26 1080p DX-TV

Stardom Year End Climax 2020 12 26 1080p DX-TV

Stardom Year End Climax 

 Stardom Year End Climax 2020

 

Download Links with premium High Speed   

 

 

dropapk.to

http://shrt10.com/sEkk2Z

 

 

nitroflare.com

http://shrt10.com/R8N78X63I

 

 

rapidgator.net

http://shrt10.com/MNXjU

 

 

uploaded.net

http://shrt10.com/ev3gr3g

 

 

uploadgig.com

http://shrt10.com/OQgRy9y0e

 

Watch online

 

Server 1

 

 

 

 

Stardom Year End Climax 

 

 

 

 

Server-2

 

 

 

 

watch now

 

 

Uploaded By Site DX-TV.com

 

 

Complete name : Stardom.2020.12.26.Year-End.Climax.2020.1080p.WEB.h264-NCMP.mp4
Format : MPEG-4
Format profile : Base Media
Codec ID : isom
File size : 3.67 GiB
Duration : 2 h 22 min
Overall bit rate : 3 699 kb/s
Writing application : Lavf57.72.101

Stardom Year End 

Video
ID : 1
Format : AVC
Duration : 2 h 22 min
Bit rate : 3 498 kb/s
Width : 1 920 pixels
Height : 1 080 pixels
Display aspect ratio : 16:9
Frame rate mode : Constant
Frame rate : 29.970 FPS
Color space : YUV
Chroma subsampling : 4:2:0
Bit depth : 8 bits
Scan type : Progressive
Bits/(Pixel*Frame) : 0.056
Stream size : 3.47 GiB (95%)
Codec configuration box : avc

Stardom Year End Climax 

Audio
ID : 2
Format : AAC LC
Format/Info : Advanced Audio
Codec ID : mp4a-40-2
Duration : 2 h 22 min
Bit rate mode : Constant
Bit rate : 192 kb/s
Channel(s) : 2 channels
Channel layout : L R
Sampling rate : 48.0 kHz
Frame rate : 46.875 FPS (1024 SPF)
Compression mode : Lossy
Stream size : 195 MiB (5%)
Default : Yes
Alternate group : 1

Stardom Year End 

Match Results…

Three-Way match
Gokigen Death def. Lady C & Ruaka

Momo Watanabe def. Saya Iida

STARS (Mayu Iwatani & Starlight Kid) def. Riho & AZM

Donna del Mondo (Himeka & Natsupoi) def. Oedo Tai (Natsuko Tora & Saki Kashima)

Six Man Tag Team match
Donna del Mondo (Giulia, Shuri & Maika) def. Cosmic Angels (Tam Nakano, Mina Shirakawa & Unagi Sayaka)

Goddesses Of STARDOM Championship match
Oedo Tai (Bea Priestley & Konami) def. Champions, Queen’s Quest (Utami Hayashishita & Saya Kamitani) TITLE CHANGE

Stardom Year End 

 

Audio
ID : 2
Format : AAC LC
Format/Info : Advanced Audio
Codec ID : mp4a-40-2
Duration : 2 h 22 min
Bit rate mode : Constant
Bit rate : 192 kb/s
Channel(s) : 2 channels
Channel layout : L R
Sampling rate : 48.0 kHz
Frame rate : 46.875 FPS (1024 SPF)
Compression mode : Lossy
Stream size : 195 MiB (5%)
Default : Yes
Alternate group : 1

https://dx-tv.com/

You May Also Like

Leave a Reply

Your email address will not be published. Required fields are marked *

This site uses Akismet to reduce spam. Learn how your comment data is processed.