ROH War Of The Worlds Chicago 2019 05 12 1080p DX-TV

Free watch ROH War Of The Worlds Chicago 2019 05 12 1080p DX-TV full show

 

 

 


 

 

dx-tv.com

shrt10.com

 

 

Night 3: Grand Rapids

 

During a tag team match between The Kingdom and Villain Enterprises PCO and Brody King, PCO pinned current ROH World Champion Matt Taven. The following week on the Ring of Honor television taping, it was announced that Matt Taven would defend his title against PCO, which was made official.

At G1 Supercard, the Guerillas of Destiny won a winner takes all match for both the ROH Tag Team Championship and the IWGP Tag Team Championship on the line. At Masters of the Craft, Jay Lethal and Jonathan Gresham won a 30-minute Iron Man Match against Lifeblood Mark Haskins and Tracy Williams 2-1 to earn an opportunity against the Guerillas of Destiny. A week later during the ROH television tapings, the match was made official.

 

ROH War Of The Worlds Chicago 2019 05 12 1080p DX-TV

 

No.ResultsStipulations
1Coast 2 Coast defeated Alex Coughlin and Karl FredericksTag team match
2Kelly Klein (c) defeated Stacy ShadowsSingles match for the Women of Honor World Championship
3Dalton Castle defeated Cheeseburger and Clark ConnorsThree-way match
4The Kingdom (Matt TavenTK O’Ryan and Vinny Marseglia) defeated Guerrillas of Destiny (Tama Tonga and Tanga Loa) and HIKULEOSix-man tag team match
5Flip Gordon defeated Rhett TitusSingles match
6Los Ingobernables de Japon (Evil and Sanada) defeated The BouncersTag team match
7Tracy Williams defeated Rush, Eli Isom and PJ BlackFour Corner Survival match
8Matt Taven (c) defeated Mark HaskinsSingles match for the ROH World Championship
9Jay LethalHirooki GotoYuji NagataJeff Cobb and Satoshi Kojima defeated The Briscoes (Jay Briscoe and Mark Briscoe), Bully Ray, Shane Taylor and Silas YoungTen-man tag team match

 

 

 

[EVENT]………..: ROH War Of The Worlds 2019/05/12 Chicago 1080p WEB HD DX-TV mp4
[RELEASED]……..: 2019.05.12
[SOURCE]……….: WEB DL
[CONTAINER]…….: mp4
[SIZE]…………: 7.94 GB
[Capper Group]….: DX-TV
[Duration]……..: 3 h 42 m
[RESOLUTION]……: 1920 x 1080 {16:9}@ 29.970 FPS
[VIDEO]………..: x264 @ 5000 kbps
[AUDIO]………..: AAC @ 129 kbps
[language]……..: English

 

 

 

Complete name : ROH War Of The Worlds 2019-05-12 Chicago 720p WEB HD DX-TV.mp4
Format : MPEG-4
Format profile : Base Media / Version 2
Codec ID : mp42 (isom/iso2/avc1/mp41)
File size : 5.70 GiB
Duration : 3 h 42 min
Overall bit rate mode : Variable
Overall bit rate : 3 659 kb/s

Video
ID : 1
Format : AVC
Format/Info : Advanced Video Codec
Codec ID : avc1
Codec ID/Info : Advanced Video Coding
Duration : 3 h 42 min
Bit rate : 3 500 kb/s
Width : 1 280 pixels
Height : 720 pixels
Display aspect ratio : 16:9
Frame rate mode : Variable
Frame rate : 29.970 (29970/1000) FPS
Minimum frame rate : 1.374 FPS
Maximum frame rate : 30.010 FPS
Color space : YUV
Chroma subsampling : 4:2:0
Bit depth : 8 bits
Scan type : Progressive
Bits/(Pixel*Frame) : 0.127
Stream size : 5.47 GiB (96%)

Color primaries : BT.709
Transfer characteristics : BT.709
Matrix coefficients : BT.709
Codec configuration box : avcC

Audio
ID : 2
Format : AAC LC
Format/Info : Advanced Audio Codec Low Complexity
Codec ID : mp4a-40-2
Duration : 3 h 42 min
Bit rate mode : Variable
Bit rate : 138 kb/s
Channel(s) : 2 channels
Channel layout : L R
Sampling rate : 48.0 kHz
Frame rate : 46.875 FPS (1024 SPF)
Compression mode : Lossy
Stream size : 220 MiB (4%)
Title : Stereo / Stereo
Language : English
Default : Yes
Alternate group : 1

 

 

ROH War Of The Worlds 2019: CHICAGO: Final Lineup
THE BRISCOES VS GUERRILLAS OF DESTINY
EVIL AND SANADA VS KOJIMA AND NAGATA
HIKULEO VS HIROOKI GOTO
PJ BLACK VS KARL FREDERICKS
Four Corner Survival Match: JEFF COBB VS JAY LETHAL VS RUSH VS PCO

 

 

 

 

 

 

 

Watch online

 

 

Waiting finish converting video

 

 

Server 1

 

 

 

 

 


Server 2

 

 

 

 

 


Uploaded By Site DX-TV.com

 

 

 

open rar file to see this password

 

 

 

 

The password : DX-TV.com

 

 

 

https://shrt10.com/l3b9VEo
https://shrt10.com/ZIqW
 

 
https://shrt10.com/elc0
https://shrt10.com/PFDXzxm
 

 
https://shrt10.com/EoRHW
https://shrt10.com/8s8cYq
 

 
https://shrt10.com/LZFV
https://shrt10.com/xdX4aO
 

 

 

 

Leave a Reply

Your email address will not be published. Required fields are marked *

WhatsApp chat
%d bloggers like this: